Ссылка на приватное зеркало нашего сайта всего за 1$. Внимание количество ограничено!!!

2 сезон

iTunes

1 сезон

1

2 сезон

2 сезон

iTunes

1 сезон

RePack

30

Ultimate

ВАЖНО

ИГРА 18+

pack

RePack

MK11
pack

Забери бонус

RePack

jed

!!Акция!!

Alien_Rage

RePack

fifa19

RePack

Assassins Creed: Odyssey

RePack

NEED FOR SPEED™ PAYBACK

4 сезон

9 сезон

Бесстыжие 9 сезон

Все сериалы

все сериалы на PB.wtf

RePack

FAR CRY 5
  

Мегрэ: Ночь на перекрёстке / Maigret: Night at the Crossroads (Сара Хардинг / Sarah Harding) [2017, Детектив, драма, криминал, WEB-DL 1080p] [MVO] (1 канал) pb.wtf

Мегрэ: Ночь на перекрёстке через торрент pb.wtf

Размер: 3.47 GB | Добавлен: 2 года назад | Торрент скачан:277 раз
Скачать  

12-11-2018 18:27 Мегрэ: Ночь на перекрёстке Скачать торрент  

Мегрэ: Ночь на перекрёстке / Maigret: Night at the Crossroads Год выпуска: 2017
Страна: Великобритания
Жанр: Детектив, драма, криминал
Продолжительность: 01:28:27
Перевод: Профессиональный (многоголосый закадровый) 1 канал
Субтитры: русские (1 канал), английские

Режиссер: Сара Хардинг / Sarah Harding

В ролях: Роуэн Аткинсон, Шон Дингуолл, Бен Каплан, Кэтерин Кантер, Робин Уивер, Том Влашиха, Миа Нильсен-Ексен, Эйдан МакАрдл

Описание: Комиссар Мегрэ несколько часов допрашивал загадочного датчанина Карла Андерсена, но так не добился признания. Почему тело маклера по сделкам с бриллиантами нашли в машине Карла рядом с его домом, стоящим на отшибе? Либо он невиновен, либо хороший лжец. И что знает сестра подозреваемого, беззащитная красавица Эльза? Мегрэ собирается выяснить всё это и найти убийцу.

rating
Сэмпл: http://multi-up.com/1214773

Релиз - miha2154

Качество видео: WEB-DL 1080p
Формат видео: MKV
Видео: AVC, 1920x1080 (16:9), 25.000 fps, 5 055 Kbps (0.098 bit/pixel)
Аудио: AC-3, 48.0 KHz, 2 ch, 192 Kbps, CBR - русский
Аудио 2: AC-3, 48.0 KHz, 2 ch, 256 Kbps, CBR - английский
Общее
Уникальный идентификатор : 206611656729845687795991914484975186623 (0x9B6FF528E9F5A389A9243CB0546EB2BF)
Полное имя : F:\Maigret. Night at the Crossroads (2017).WEB-DL.1080p.mkv
Формат : Matroska
Версия формата : Version 2
Размер файла : 3,47 Гбайт
Продолжительность : 1 ч. 28 м.
Режим общего битрейта : Переменный
Общий поток : 5615 Кбит/сек
Название фильма : Мегрэ: Ночь на перекрёстке / Maigret: Night at the Crossroads (2017)
Дата кодирования : UTC 2018-11-12 16:26:29
Программа кодирования : mkvmerge v8.2.0 ('World of Adventure') 64bit
Библиотека кодирования : libebml v1.3.1 + libmatroska v1.4.2

Видео
Идентификатор : 1
Формат : AVC
Формат/Информация : Advanced Video Codec
Профиль формата : High@L4
Настройки формата : CABAC / 2 Ref Frames
Параметр CABAC формата : Да
Параметр RefFrames формата : 2 кадра
Идентификатор кодека : V_MPEG4/ISO/AVC
Продолжительность : 1 ч. 28 м.
Вид битрейта : Переменный
Битрейт : 5055 Кбит/сек
Максимальный битрейт : 768 Кбит/сек
Ширина : 1920 пикселей
Высота : 1080 пикселей
Соотношение сторон : 16:9
Режим частоты кадров : Постоянный
Частота кадров : 25,000 кадров/сек
Цветовое пространство : YUV
Субдискретизация насыщенности : 4:2:0
Битовая глубина : 8 бит
Тип развёртки : Прогрессивная
Бит/(Пиксели*Кадры) : 0.098
Размер потока : 3,12 Гбайт (90%)
Язык : English
Default : Да
Forced : Нет

Аудио #1
Идентификатор : 2
Формат : AC-3
Формат/Информация : Audio Coding 3
Коммерческое название : Dolby Digital
Идентификатор кодека : A_AC3
Продолжительность : 1 ч. 28 м.
Вид битрейта : Постоянный
Битрейт : 192 Кбит/сек
Каналы : 2 канала
Channel layout : L R
Частота : 48,0 КГц
Частота кадров : 31,250 кадров/сек (1536 SPF)
Битовая глубина : 16 бит
Метод сжатия : С потерями
Размер потока : 121 Мбайт (3%)
Заголовок : Профессиональный (многоголосый закадровый) 1 канал
Язык : Russian
ServiceKind/String : Complete Main
Default : Да
Forced : Нет

Аудио #2
Идентификатор : 3
Формат : AC-3
Формат/Информация : Audio Coding 3
Коммерческое название : Dolby Digital
Идентификатор кодека : A_AC3
Продолжительность : 1 ч. 28 м.
Вид битрейта : Постоянный
Битрейт : 256 Кбит/сек
Каналы : 2 канала
Channel layout : L R
Частота : 48,0 КГц
Частота кадров : 31,250 кадров/сек (1536 SPF)
Битовая глубина : 16 бит
Метод сжатия : С потерями
Размер потока : 162 Мбайт (5%)
Язык : English
ServiceKind/String : Complete Main
Default : Нет
Forced : Нет

Текст #1
Идентификатор : 4
Формат : UTF-8
Идентификатор кодека : S_TEXT/UTF8
Идентификатор кодека/Информация : UTF-8 Plain Text
Заголовок : 1 канал
Язык : Russian
Default : Нет
Forced : Нет

Текст #2
Идентификатор : 5
Формат : UTF-8
Идентификатор кодека : S_TEXT/UTF8
Идентификатор кодека/Информация : UTF-8 Plain Text
Язык : English
Default : Нет
Forced : Нет
скриншот  скриншот  скриншот  
pb.wtf



Скачать Мегрэ: Ночь на перекрёстке через торрент http://i98.fastpic.ru/big/2018/1101/ce/5dbd7f8eb7ab85ea597c6c82019241ce.jpg Скачать фильм Мегрэ: Ночь на перекрёстке через торрент бесплантно в хорошем качестве Описание: Комиссар Мегрэ несколько часов допрашивал загадочного датчанина Карла Андерсена, но так не добился признания. Почему тело маклера ... 9.7 10 6
Торрент: Зарегистрирован [2018-11-12 18:27] · скачан: 277 раз
Статус: √ проверено
Размер: 3.47 GB
Как cкачать? Как скачать Мегрэ: Ночь на перекрёстке через торрент | qTorrent

28-11-2019 20:33  

Отключить всю рекламу на сайте

    Дорогой пользователь! Огромная просьба, поблагодарите релизера, оцените раздачу и оставьте свои комментарий, если Вы скачали Мегрэ: Ночь на перекрёстке через торрент бесплатно! Внесите свою лепту в развитие PiratBit!
    Комментировать посты могут только пользователи прошедшие не сложную регистрацию
    Показать сообщения:    

    Мегрэ: Ночь на перекрёстке через торрент
    Скачать бесплатно Мегрэ: Ночь на перекрёстке
    Мегрэ: Ночь на перекрёстке скачать торрент
    Мегрэ: Ночь на перекрёстке смотреть онлайн
    Cкачать фильм Мегрэ: Ночь на перекрёстке бесплатно
    Мегрэ: Ночь на перекрёстке скачать торрент в хорошем качестве
    Мегрэ: Ночь на перекрёстке смотреть онлайн бесплатно в хорошем качестве


    Вы не можете начинать темы
    Вы не можете отвечать на сообщения
    Вы не можете редактировать свои сообщения
    Вы не можете удалять свои сообщения
    Вы не можете голосовать в опросах
    Вы не можете прикреплять файлы к сообщениям
    Вы можете скачивать файлы