Ссылка на приватное зеркало нашего сайта всего за 1$. Внимание количество ограничено!!!

2 сезон

iTunes

1 сезон

1

2 сезон

2 сезон

iTunes

1 сезон

RePack

30

Ultimate

ВАЖНО

ИГРА 18+

pack

RePack

MK11
pack

Забери бонус

RePack

jed

!!Акция!!

Alien_Rage

RePack

fifa19

RePack

Assassins Creed: Odyssey

RePack

NEED FOR SPEED™ PAYBACK

4 сезон

9 сезон

Бесстыжие 9 сезон

Все сериалы

все сериалы на PB.wtf

RePack

FAR CRY 5
  

Титаник / Titanic (Джеймс Кэмерон) [1997 г., драма, мелодрама, BDRip 1080p-HEVC 10bit, Дубляж] [Open Matte] pb.wtf

Титаник через торрент pb.wtf

Раздают: 1 [ 0 KB/s ]
Размер: 7.17 GB | Добавлен: 2 года назад | Торрент скачан:110 раз
Скачать  

12-11-2018 18:29 Титаник Скачать торрент  

Титаник / Titanic
Open Matte
Год выпуска: 1997
Страна: США
Жанр: драма, мелодрама
Продолжительность: 03:14:55
Перевод: Дубляж
Субтитры: Нет

Режиссер: Джеймс Кэмерон

rating

В ролях: Леонардо ДиКаприо, Кейт Уинслет, Билли Зейн, Кэти Бейтс, Фрэнсис Фишер, Глория Стюарт, Билл Пэкстон, Бернард Хилл, Дэвид Уорнер, Виктор Гарбер

Описание: Молодые влюбленные Джек и Роза находят друг друга в первом и последнем плавании «непотопляемого» Титаника. Они не могли знать, что шикарный лайнер столкнется с айсбергом в холодных водах Северной Атлантики, и их страстная любовь превратится в схватку со смертью.

Качество: BDRip 1080p
Формат: MKV
Видео кодек: H.265
Аудио кодек: DTS
Видео: HEVC/H.265, 1920x1080, 4500 Kbps
Аудио#1: DTS, 5.1ch, 768 Kbps - Русский |Дубляж Blu-ray CEE|
Релиз от: ADVOKAT69
Общее
Уникальный идентификатор : 176019243349505520412952228309815211859 (0x846C12BA51F46B4DBA0C078B828B3753)
Полное имя : D:\Титаник HEVC 10bit.mkv
Формат : Matroska
Версия формата : Version 4 / Version 2
Размер файла : 7,17 Гбайт
Продолжительность : 3 ч. 14 м.
Общий поток : 5270 Кбит/сек
Дата кодирования : UTC 2018-11-05 19:16:54
Программа кодирования : mkvmerge v9.2.0 ('Photograph') 64bit
Библиотека кодирования : libebml v1.3.3 + libmatroska v1.4.4

Видео
Идентификатор : 1
Формат : HEVC
Формат/Информация : High Efficiency Video Coding
Профиль формата : Main 10@L4@Main
Идентификатор кодека : V_MPEGH/ISO/HEVC
Продолжительность : 3 ч. 14 м.
Битрейт : 4397 Кбит/сек
Ширина : 1920 пикселей
Высота : 1080 пикселей
Соотношение сторон : 16:9
Режим частоты кадров : Постоянный
Частота кадров : 23,976 (24000/1001) кадра/сек
Цветовое пространство : YUV
Субдискретизация насыщенности : 4:2:0
Битовая глубина : 10 бит
Бит/(Пиксели*Кадры) : 0.088
Размер потока : 5,99 Гбайт (83%)
Библиотека кодирования : x265 2.9+4-471726d3a046:[Windows][MSVC 1900][64 bit] 10bit
Настройки программы : cpuid=1111039 / frame-threads=4 / numa-pools=16 / wpp / no-pmode / no-pme / no-psnr / no-ssim / log-level=2 / input-csp=1 / input-res=1920x1080 / interlace=0 / total-frames=280392 / level-idc=0 / high-tier=1 / uhd-bd=0 / ref=5 / no-allow-non-conformance / no-repeat-headers / annexb / no-aud / no-hrd / info / hash=0 / no-temporal-layers / open-gop / min-keyint=23 / keyint=250 / gop-lookahead=0 / bframes=8 / b-adapt=2 / b-pyramid / bframe-bias=0 / rc-lookahead=60 / lookahead-slices=4 / scenecut=40 / radl=0 / no-intra-refresh / ctu=64 / min-cu-size=8 / rect / no-amp / max-tu-size=32 / tu-inter-depth=1 / tu-intra-depth=1 / limit-tu=0 / rdoq-level=2 / dynamic-rd=0.00 / no-ssim-rd / signhide / no-tskip / nr-intra=0 / nr-inter=0 / no-constrained-intra / strong-intra-smoothing / max-merge=3 / limit-refs=3 / limit-modes / me=3 / subme=5 / merange=57 / temporal-mvp / weightp / no-weightb / no-analyze-src-pics / deblock=-3:-3 / no-sao / no-sao-non-deblock / rd=4 / no-early-skip / rskip / no-fast-intra / no-tskip-fast / no-cu-lossless / no-b-intra / no-splitrd-skip / rdpenalty=0 / psy-rd=2.00 / psy-rdoq=1.00 / no-rd-refine / no-lossless / cbqpoffs=0 / crqpoffs=0 / rc=abr / bitrate=4500 / qcomp=0.60 / qpstep=4 / stats-write=0 / stats-read=2 / cplxblur=20.0 / qblur=0.5 / ipratio=1.40 / pbratio=1.30 / aq-mode=3 / aq-strength=1.00 / cutree / zone-count=0 / no-strict-cbr / qg-size=32 / no-rc-grain / qpmax=69 / qpmin=0 / no-const-vbv / sar=0 / overscan=0 / videoformat=5 / range=0 / colorprim=2 / transfer=2 / colormatrix=2 / chromaloc=0 / display-window=0 / max-cll=0,0 / min-luma=0 / max-luma=1023 / log2-max-poc-lsb=8 / vui-timing-info / vui-hrd-info / slices=1 / no-opt-qp-pps / no-opt-ref-list-length-pps / no-multi-pass-opt-rps / scenecut-bias=0.05 / no-opt-cu-delta-qp / no-aq-motion / no-hdr / no-hdr-opt / no-dhdr10-opt / no-idr-recovery-sei / analysis-reuse-level=5 / scale-factor=0 / refine-intra=0 / refine-inter=0 / refine-mv=0 / no-limit-sao / ctu-info=0 / no-lowpass-dct / refine-mv-type=0 / copy-pic=1 / max-ausize-factor=1.0 / no-dynamic-refine / no-single-sei
Default : Да
Forced : Нет

Аудио
Идентификатор : 2
Формат : DTS
Формат/Информация : Digital Theater Systems
Идентификатор кодека : A_DTS
Продолжительность : 3 ч. 14 м.
Вид битрейта : Постоянный
Битрейт : 768 Кбит/сек
Каналы : 6 каналов
Расположение каналов : Front: L C R, Side: L R, LFE
Частота : 48,0 КГц
Частота кадров : 93,750 кадра/сек (512 SPF)
Битовая глубина : 24 бит
Метод сжатия : С потерями
Размер потока : 1,05 Гбайт (15%)
Default : Да
Forced : Нет

Меню
00:00:00.000 : en:Chapter 1
00:01:24.375 : en:Chapter 2
00:04:39.988 : en:Chapter 3
00:08:26.130 : en:Chapter 4
00:10:46.771 : en:Chapter 5
00:12:52.646 : en:Chapter 6
00:16:52.428 : en:Chapter 7
00:20:07.748 : en:Chapter 8
00:23:38.875 : en:Chapter 9
00:26:26.543 : en:Chapter 10
00:29:03.366 : en:Chapter 11
00:29:37.525 : en:Chapter 12
00:34:59.931 : en:Chapter 13
00:36:48.622 : en:Chapter 14
00:42:59.159 : en:Chapter 15
00:45:26.098 : en:Chapter 16
00:47:11.620 : en:Chapter 17
00:53:33.043 : en:Chapter 18
00:56:47.987 : en:Chapter 19
01:05:32.052 : en:Chapter 20
01:10:19.965 : en:Chapter 21
01:14:06.358 : en:Chapter 22
01:16:10.690 : en:Chapter 23
01:19:59.044 : en:Chapter 24
01:22:50.506 : en:Chapter 25
01:23:40.056 : en:Chapter 26
01:28:21.629 : en:Chapter 27
01:29:19.854 : en:Chapter 28
01:32:52.274 : en:Chapter 29
01:36:59.104 : en:Chapter 30
01:44:41.149 : en:Chapter 31
01:46:21.041 : en:Chapter 32
01:47:58.850 : en:Chapter 1
01:50:11.107 : en:Chapter 2
01:52:21.403 : en:Chapter 3
01:53:54.330 : en:Chapter 4
01:55:21.834 : en:Chapter 5
01:56:10.883 : en:Chapter 6
01:57:53.235 : en:Chapter 7
02:06:38.343 : en:Chapter 8
02:08:49.974 : en:Chapter 9
02:11:22.085 : en:Chapter 10
02:15:42.553 : en:Chapter 11
02:19:43.460 : en:Chapter 12
02:21:24.561 : en:Chapter 13
02:25:28.764 : en:Chapter 14
02:27:28.425 : en:Chapter 15
02:29:07.274 : en:Chapter 16
02:29:56.698 : en:Chapter 17
02:33:31.538 : en:Chapter 18
02:36:52.363 : en:Chapter 19
02:38:33.881 : en:Chapter 20
02:40:34.669 : en:Chapter 21
02:45:00.643 : en:Chapter 22
02:47:48.811 : en:Chapter 23
02:49:22.529 : en:Chapter 24
02:52:09.613 : en:Chapter 25
02:53:41.330 : en:Chapter 26
02:57:53.498 : en:Chapter 27
02:59:35.308 : en:Chapter 28
03:01:29.255 : en:Chapter 29
03:03:13.651 : en:Chapter 30
03:04:57.880 : en:Chapter 31
03:07:19.647 : en:Chapter 32
скриншот  ,скриншот  ,скриншот  ,скриншот  ,
pb.wtf



Скачать Титаник через торрент https://b.radikal.ru/b14/1811/00/c6e775d8f457.png Скачать фильм Титаник через торрент бесплантно в хорошем качестве Описание: Молодые влюбленные Джек и Роза находят друг друга в первом и последнем плавании «непотопляемого» Титаника. Они не могли знать, ... 10 10 10
Info! Золотая раздача, скачанное не засчитывается.
Торрент: Зарегистрирован [2018-11-12 18:29] · скачан: 110 раз
Статус: √ проверено
Размер: 7.17 GB
Как cкачать? Как скачать Титаник через торрент | qTorrent

% Раздел Тема Автор DL S | L
Фильмы [HD 720p, 1080p] (Хороший звук DUB, MVO) [ 34.27 GB ] Титаник / Titanic [1997 BDRip 1080p] [Open matte] 2xDUB +MVO +2xDVO+4xAVO+VO bober100 Скачать
2 | 0
Фильмы (HD 720p, 1080p) (48-60 fps) [ 7.82 GB ] Титаник / Titanic [1997 катастрофа BDRip-HEVC 720p / 60 FPS Open Mate Оригинал] Tiberiumsun69 Скачать
16 | 0
T Фильмы (WEB-DL 720p, 1080p) [ 6.31 GB ] Чужие против девочек из колледжа / Чужие против Титаника / Aliens vs. Titanic / Predator World / Aliens vs. College Girls [2017 WEB-DL 1080p] MVO [Синема УС] bober100 Скачать
1 | 0
National Geographic [ 1.17 GB ] National Geographic: Фатальный пожар на Титанике / Титаник. Роковой пожар / Titanic's Fatal Fire [2017 ДокументальныйDVB ] Armstrong Скачать
1 | 0
Ultra HD (UHD: 2K, 4K, 8K) — видео сверхвысокой чёткости [ 112.77 GB ] Титаник / Titanic [1997 UHD BDRemux 2160p] DUB + 2xMVO + DVO + 6xAVO sheker187 Скачать
2 | 0
Фильмы с авторской озвучкой [ 4 GB ] Титаник / Titanic [1997 Мело BDRip] [AVO] killermax2013 Скачать
1 | 0
Фильмы до 2000 г. [ 2.74 GB ] Титаник / Titanic [1996 история DVDRip] 2x[MVO] killermax2013 Скачать
1 | 0

28-11-2019 20:33  

Отключить всю рекламу на сайте

12-11-2018 19:33 Титаник Скачать торрент  

12-11-2018 20:43 Титаник Скачать торрент  

Кто же не видел этот фильм?! Наверное все видели?!
Один из любимых моих фильмов!!!
Давно в коллекции. pb.wtf



    Дорогой пользователь! Огромная просьба, поблагодарите релизера, оцените раздачу и оставьте свои комментарий, если Вы скачали Титаник через торрент бесплатно! Внесите свою лепту в развитие PiratBit!
    Комментировать посты могут только пользователи прошедшие не сложную регистрацию
    Показать сообщения:    

    Титаник через торрент
    Скачать бесплатно Титаник
    Титаник скачать торрент
    Титаник смотреть онлайн
    Cкачать фильм Титаник бесплатно
    Титаник скачать торрент в хорошем качестве
    Титаник смотреть онлайн бесплатно в хорошем качестве


    Вы не можете начинать темы
    Вы не можете отвечать на сообщения
    Вы не можете редактировать свои сообщения
    Вы не можете удалять свои сообщения
    Вы не можете голосовать в опросах
    Вы не можете прикреплять файлы к сообщениям
    Вы можете скачивать файлы