новый адрес
Ссылка на приватное зеркало всего за 1$. Внимание количество ограничено!!!

iTunes

1+1

iTunes

мы

iTunes

1

iTunes

Чернобыль

iTunes

Ральф против интернета

Лицензия

ПШазам

Лицензия

Оно 2

Лицензия

30
pack

Вам бонус

ВАЖНО

!!Акция!!

Alien_RageХит недели

RePack

Resident Evil 21

ИГРА 18+

pack

RePack

jed

!!Акция!!

Alien_Rage

RePack

fifa19

RePack

Assassins Creed: Odyssey

RePack

NEED FOR SPEED™ PAYBACK

3 сезон

9 сезон

Бесстыжие 9 сезон

Все сериалы

все сериалы на PB.wtf

RePack

FAR CRY 5
Ребята, катастрофически не хватает 1900р. для оплаты серверов за Октябрь (всвязи с блокировками трафик упал в 3 раза), 1-2р., выручайте.
  

Великий уравнитель 2 / The Equalizer 2 (Антуан Фукуа / Antoine Fuqua) [2018, боевик, триллер, BDRip-AVC] Dub [Лицензия], AVO (Есарев) - ExKinoRay pb.wtf

Великий уравнитель 2 через торрент pb.wtf

Размер: 2.98 GB | Добавлен: 11 мес. назад | Торрент скачан:557 раз
Скачать  

13-11-2018 04:09 Великий уравнитель 2 Скачать торрент  

Информация о фильме
Название: Великий уравнитель 2
Оригинальное название: The Equalizer 2
Год выпуска: 2018
Жанр: Боевик, триллер, криминал
Режиссер: Антуан Фукуа
В ролях: Педро Паскаль, Дензел Вашингтон, Билл Пуллман, Мелисса Лео, Джонатан Скарф, Сакина Джэффри, Кэролайн Дэй, Орсон Бин, Хайди Гарроу, Эштон Сандерс

Описание:
Продолжение истории Роберта Маккола, бывшего агента ЦРУ, который самостоятельно вершит правосудие.

rating

Страна: США
Студия: Columbia Pictures, Escape Artists, Fuqua Films
Продолжительность: 02:00:57
Перевод: Дублированный | Лицензия, авторский (закадровый) Есарев

Кодек: х264
Качество: BDRip-AVC
Видео: MPEG-4 AVC, 1024x426 (2.40:1), 23,976 fps, ~ 1988 kbps
Аудио #01: 48 kHz, AC3, 5.1, 448 Kbps | Лицензия | RUS |
Аудио #02: 48 kHz, AC3, 5.1, 448 Kbps | Авторский (Д. Есарев) | RUS |
Аудио #03: 48 kHz, AC3, 2.0, 192 Kbps | Дублированный (студія LeDoyen) | RUS |
Аудио #04: 48 kHz, AC3, 5.1, 448 Kbps | Оригинал | ENG |
Субтитры: Русские (Forced, full), украинские (Forced, Full), английские
General
Unique ID : 218016213521735662433503812105043117585 (0xA4046538D368FAEE8772BC592B870611)
Complete name : D:\The.Equalizer.2.2018.BDRip.AVC.ExKinoRay.mkv
Format : Matroska
Format version : Version 2
File size : 2.98 GiB
Duration : 2 h 0 min
Overall bit rate : 3 527 kb/s
Movie name : The Equalizer 2 2018 from ExKinoRay
Encoded date : UTC 2018-12-15 04:50:10
Writing application : mkvmerge v5.6.0 ('Kenya Kane') built on May 27 2012 16:44:04
Writing library : libebml v1.2.3 + libmatroska v1.3.0

Video
ID : 1
Format : AVC
Format/Info : Advanced Video Codec
Format profile : High@L4.1
Format settings, CABAC : Yes
Format settings, ReFrames : 12 frames
Codec ID : V_MPEG4/ISO/AVC
Duration : 2 h 0 min
Bit rate : 1 988 kb/s
Width : 1 024 pixels
Height : 426 pixels
Display aspect ratio : 2.40:1
Frame rate mode : Constant
Frame rate : 23.976 (23976/1000) FPS
Color space : YUV
Chroma subsampling : 4:2:0
Bit depth : 8 bits
Scan type : Progressive
Bits/(Pixel*Frame) : 0.190
Stream size : 1.62 GiB (54%)
Title : Enigma
Writing library : x264 core 152 r2851 ba24899
Encoding settings : cabac=1 / ref=12 / deblock=1:-2:-2 / analyse=0x3:0x113 / me=umh / subme=10 / psy=1 / psy_rd=1.04:0.10 / mixed_ref=1 / me_range=32 / chroma_me=1 / trellis=2 / 8x8dct=1 / cqm=0 / deadzone=21,11 / fast_pskip=0 / chroma_qp_offset=-3 / threads=12 / lookahead_threads=3 / sliced_threads=0 / nr=0 / decimate=0 / interlaced=0 / bluray_compat=0 / constrained_intra=0 / bframes=10 / b_pyramid=2 / b_adapt=2 / b_bias=0 / direct=3 / weightb=1 / open_gop=0 / weightp=2 / keyint=240 / keyint_min=23 / scenecut=40 / intra_refresh=0 / rc=2pass / mbtree=0 / bitrate=1988 / ratetol=1.0 / qcomp=0.60 / qpmin=0 / qpmax=51 / qpstep=4 / cplxblur=20.0 / qblur=0.5 / ip_ratio=1.40 / pb_ratio=1.30 / aq=2:0.90
Language : English
Default : Yes
Forced : No
Color range : Limited
Color primaries : BT.709
Transfer characteristics : BT.709
Matrix coefficients : BT.709

Audio #1
ID : 2
Format : AC-3
Format/Info : Audio Coding 3
Mode extension : CM (complete main)
Format settings, Endianness : Big
Codec ID : A_AC3
Duration : 2 h 0 min
Bit rate mode : Constant
Bit rate : 448 kb/s
Channel(s) : 6 channels
Channel positions : Front: L C R, Side: L R, LFE
Sampling rate : 48.0 kHz
Frame rate : 31.250 FPS (1536 spf)
Compression mode : Lossy
Stream size : 388 MiB (13%)
Title : Dub (Blu-ray)
Language : Russian
Default : Yes
Forced : No

Audio #2
ID : 3
Format : AC-3
Format/Info : Audio Coding 3
Mode extension : CM (complete main)
Format settings, Endianness : Big
Codec ID : A_AC3
Duration : 2 h 0 min
Bit rate mode : Constant
Bit rate : 448 kb/s
Channel(s) : 6 channels
Channel positions : Front: L C R, Side: L R, LFE
Sampling rate : 48.0 kHz
Frame rate : 31.250 FPS (1536 spf)
Compression mode : Lossy
Stream size : 388 MiB (13%)
Title : AVO (Esarev)
Language : Russian
Default : No
Forced : No

Audio #3
ID : 4
Format : AC-3
Format/Info : Audio Coding 3
Mode extension : CM (complete main)
Format settings, Endianness : Big
Codec ID : A_AC3
Duration : 2 h 0 min
Bit rate mode : Constant
Bit rate : 192 kb/s
Channel(s) : 2 channels
Channel positions : Front: L R
Sampling rate : 48.0 kHz
Frame rate : 31.250 FPS (1536 spf)
Compression mode : Lossy
Stream size : 166 MiB (5%)
Title : Dub (LeDoyen)
Language : Ukrainian
Default : No
Forced : No

Audio #4
ID : 5
Format : AC-3
Format/Info : Audio Coding 3
Mode extension : CM (complete main)
Format settings, Endianness : Big
Codec ID : A_AC3
Duration : 2 h 0 min
Bit rate mode : Constant
Bit rate : 448 kb/s
Channel(s) : 6 channels
Channel positions : Front: L C R, Side: L R, LFE
Sampling rate : 48.0 kHz
Frame rate : 31.250 FPS (1536 spf)
Compression mode : Lossy
Stream size : 388 MiB (13%)
Language : English
Default : No
Forced : No

Text #1
ID : 6
Format : UTF-8
Codec ID : S_TEXT/UTF8
Codec ID/Info : UTF-8 Plain Text
Title : Forced
Language : Russian
Default : Yes
Forced : No

Text #2
ID : 7
Format : UTF-8
Codec ID : S_TEXT/UTF8
Codec ID/Info : UTF-8 Plain Text
Title : Full
Language : Russian
Default : No
Forced : No

Text #3
ID : 8
Format : UTF-8
Codec ID : S_TEXT/UTF8
Codec ID/Info : UTF-8 Plain Text
Title : Forced
Language : Ukrainian
Default : No
Forced : No

Text #4
ID : 9
Format : UTF-8
Codec ID : S_TEXT/UTF8
Codec ID/Info : UTF-8 Plain Text
Language : Ukrainian
Default : No
Forced : No

Text #5
ID : 10
Format : UTF-8
Codec ID : S_TEXT/UTF8
Codec ID/Info : UTF-8 Plain Text
Language : English
Default : No
Forced : No

Menu
00:00:00.000 : en:Chapter 1
00:01:31.758 : en:Chapter 2
00:01:58.577 : en:Chapter 3
00:04:54.127 : en:Chapter 4
00:05:33.041 : en:Chapter 5
00:05:51.893 : en:Chapter 6
00:06:24.092 : en:Chapter 7
00:06:55.498 : en:Chapter 8
00:07:06.635 : en:Chapter 9
00:07:35.622 : en:Chapter 10
00:07:53.765 : en:Chapter 11
00:08:09.781 : en:Chapter 12
00:08:21.793 : en:Chapter 13
00:08:38.935 : en:Chapter 14
00:09:08.840 : en:Chapter 15
00:09:44.375 : en:Chapter 16
00:11:32.233 : en:Chapter 17
00:11:41.075 : en:Chapter 18
00:12:05.725 : en:Chapter 19
00:13:03.783 : en:Chapter 20
00:15:24.674 : en:Chapter 21
00:15:58.291 : en:Chapter 22
00:16:19.186 : en:Chapter 23
00:16:54.347 : en:Chapter 24
00:17:58.327 : en:Chapter 25
00:19:33.547 : en:Chapter 26
00:20:02.993 : en:Chapter 27
00:20:55.963 : en:Chapter 28
00:23:04.633 : en:Chapter 29
00:23:50.179 : en:Chapter 30
00:23:59.688 : en:Chapter 31
00:24:13.994 : en:Chapter 32
00:24:20.709 : en:Chapter 33
00:25:47.588 : en:Chapter 34
00:28:22.617 : en:Chapter 35
00:28:39.426 : en:Chapter 36
00:31:49.908 : en:Chapter 37
00:32:04.589 : en:Chapter 38
00:32:13.640 : en:Chapter 39
00:34:11.174 : en:Chapter 40
00:35:14.571 : en:Chapter 41
00:36:09.834 : en:Chapter 42
01:31:39.244 : en:Chapter 43
01:32:20.660 : en:Chapter 44
01:32:41.014 : en:Chapter 45
01:33:19.969 : en:Chapter 46
01:34:56.524 : en:Chapter 47
01:41:27.832 : en:Chapter 48
01:41:36.382 : en:Chapter 49
01:42:24.722 : en:Chapter 50
01:46:59.496 : en:Chapter 51
Релиз от:

Автор релиза: pb.wtf



Скачать Великий уравнитель 2 через торрент https://b.radikal.ru/b33/1810/c1/a882d3d12032.png Скачать фильм Великий уравнитель 2 через торрент бесплантно в хорошем качестве Описание: Продолжение истории Роберта Маккола, бывшего агента ЦРУ, который самостоятельно вершит правосудие. Страна: СШАСтудия: Columbia ... 9.6 10 18
Info! Золотая раздача, скачанное не засчитывается.
Торрент: Зарегистрирован [2018-12-15 05:47] · скачан: 557 раз
Статус: √ проверено
Размер: 2.98 GB
Как cкачать? Как скачать Великий уравнитель 2 через торрент | qTorrent



Последний раз редактировалось: Enigma2010 (2018-12-15 05:50), всего редактировалось 1 раз
Отключить всю рекламу на сайте

15-12-2018 05:49 Великий уравнитель 2 Скачать торрент  

Замена на лицензию.
Добавлен перевод Есарева.pb.wtf



    Дорогой пользователь! Огромная просьба, поблагодарите релизера, оцените раздачу и оставьте свои комментарий, если Вы скачали Великий уравнитель 2 через торрент бесплатно! Внесите свою лепту в развитие PiratBit!
    Комментировать посты могут только пользователи прошедшие не сложную регистрацию
    Показать сообщения:    

    Великий уравнитель 2 через торрент
    Скачать бесплатно Великий уравнитель 2
    Великий уравнитель 2 скачать торрент
    Великий уравнитель 2 смотреть онлайн
    Cкачать фильм Великий уравнитель 2 бесплатно
    Великий уравнитель 2 скачать торрент в хорошем качестве
    Великий уравнитель 2 смотреть онлайн бесплатно в хорошем качестве


    Вы не можете начинать темы
    Вы не можете отвечать на сообщения
    Вы не можете редактировать свои сообщения
    Вы не можете удалять свои сообщения
    Вы не можете голосовать в опросах
    Вы не можете прикреплять файлы к сообщениям
    Вы можете скачивать файлы