Ссылка на приватное зеркало нашего сайта всего за 1$. Внимание количество ограничено!!!

2 сезон

iTunes

1 сезон

1

iTunes

iTunes

iTunes

1 сезон

RePack

30

ИГРА 18+

pack

ВАЖНО

!!Акция!!

Alien_RageХит недели

RePack

MK11
pack

Забери бонус

RePack

jed

!!Акция!!

Alien_Rage

RePack

fifa19

RePack

Assassins Creed: Odyssey

RePack

NEED FOR SPEED™ PAYBACK

4 сезон

9 сезон

Бесстыжие 9 сезон

Все сериалы

все сериалы на PB.wtf

RePack

FAR CRY 5
  

Брат за брата / Серии: 1 - 24 из 24 (Олег Туранский, Олег Ларин) [2010, Драма, криминальный фильм, DVB] pb.wtf

Брат за брата через торрент pb.wtf

Размер: 43.25 GB | Добавлен: 9 лет 9 мес. назад | Торрент скачан:59 раз
Скачать  

19-12-2010 19:54 Брат за брата Скачать торрент  

Брат за брата

Год выпуска: 2010
Производство:
Страна:
Жанр: драма, криминал
Продолжительность: ~ 00:45:00 серия
Перевод: Не требуется
Субтитры: Отсутствуют

Режиссер: Олег Туранский, Олег Ларин
Продюссер: Алексей Терентьев, Влад Ряшин
Сценарий: Олег Туранский, Андрей Тумаркин

Мировой рейтинг IMDB


В ролях: Ярослав Бойко, Владимир Стеклов, Константин Стрельников, Егор Клейменов, Сергей Романюк (II), Максим Дрозд, Виталий Линецкий, Станислав Боклан, Дмитрий Суржиков, Александр Кобзарь, Денис Гранчак, Анна Казючиц, Игорь Петрусенко, Игорь Писный, Ольга Радчук, Лариса Руснак, Анна Саливанчук, Сергей Сипливый, Ольга Сторожук, Елена Турбал, Евгений Ефремов, Григорий Меликбекян, Михаил Полосухин, Кристина Ярошенко

Описание: Такие кварталы, как Гарлем, раньше можно было увидеть только в голливудских боевиках. Никто не думал, что они могут появиться и у нас. Гарлем  настоящее гетто в одном из крупных российских городов. Здесь почти открыто торгуют наркотиками и перепродают краденое. Школьные учителя боятся своих учеников, ведь те способны убить за плохую оценку. Местные стражи правопорядка не рискуют в позднее время суток лишний раз появляться на его улицах, а жители так привыкли к установленным правилам игры, что кажется, ничто и никогда не сможет заставить их иначе смотреть на происходящее вокруг.Жизнь Гарлема меняется с приездом Игоря Светлова. Окончив Высшую школу милиции в Москве, он работал в «убойном» отделе столичного ГУВД, а теперь вернулся в родной город, чтобы разыскать убийцу своего брата. Игорь хочет навести порядок в Гарлеме. Но ему придется противостоять не только бандитам  по другую сторону баррикад окажутся сослуживцы и близкие люди. На улицах микрорайона начинается война на выживание


Внимание! Раздача ведётся путём добавления новых серий; при каждом добавлении создётся новый торрент. Чтобы начать докачку новой серии, пользователям необходимо сделать следующее:
(1) остановить скачивание,
(2) удалить старый торрент у себя из клиента (старые серии удалять не надо),
(3) скачать новый торрент и запустить его у себя в клиенте вместо старого, при этом указать клиенту путь в старую папку куда и должно происходить скачивание новых серий.

Ваш клиент при этом должен произвести хеширование (проверку) старой папки (если не производит сам - помогите ему сделать это), и будет докачивать только те серии которых у вас ещё нет. Старые серии при этом не удаляются, а продолжают раздаваться!

Eсли вы уже удалили старые серии, то предотвратить повторную закачку старых серий можно, отжав галочку в соответсвующих местах при запуске нового торрента. По возможности, желательно не удалять старые серии как можно дольше чтобы релизёр не столько продолжал раздавать старые серии, а смог сконцентрироваться на новых.
Качество: DVB(SATRemux)
Формат: MPEG
Видео кодек: MPEG2
Аудио кодек: MPEG1 Layer 2
Видео: MPEG2 Video 720x576 (4:3) 25.00fps 5 468 Kbps, 0.527 bit/pixel
Аудио: MPEG Audio 48000Hz stereo 192 Кбит/сек
Complete name : F:\TORENTRAZDACHI\Брат за брата by CLIPMAN\Брат за брата.01,DVB by CLIPMAN.mpg
Format : MPEG-PS
File size : 1.80 GiB
Duration : 44mn 44s
Overall bit rate : 5 775 Kbps
Writing library : (c) 1997-2004 Womble Multimedia, Inc. / MPEG-VCR V3.14 (06/2004) / Jun 27 2004
Video
ID : 224 (0xE0)
Format : MPEG Video
Format version : Version 2
Format profile : Main@Main
Format settings, BVOP : Yes
Format settings, Matrix : Default
Duration : 44mn 44s
Bit rate mode : Variable
Bit rate : 5 468 Kbps
Nominal bit rate : 10 000 Kbps
Width : 720 pixels
Height : 576 pixels
Display aspect ratio : 4:3
Frame rate : 25.000 fps
Standard : PAL
Color space : YUV
Chroma subsampling : 4:2:0
Bit depth : 8 bits
Scan type : Interlaced
Scan order : Top Field First
Bits/(Pixel*Frame) : 0.527
Stream size : 1.71 GiB (95%)
Writing library : (c) 1997-2004 Womble Multimedia, Inc. / MPEG-VCR V3.14 (06/2004) / Jun 27 2004
Audio
ID : 192 (0xC0)
Format : MPEG Audio
Format version : Version 1
Format profile : Layer 2
Duration : 44mn 44s
Bit rate mode : Constant
Bit rate : 192 Kbps
Channel(s) : 2 channels
Sampling rate : 48.0 KHz
Video delay : -80ms
Stream size : 61.5 MiB (3%)




pb.wtf



Скачать Брат за брата через торрент http://piratbit.in.ua/ddc04d0bf028ef560defa8f6a6adcdb7.jpg Скачать фильм Брат за брата через торрент бесплантно в хорошем качестве Описание: Такие кварталы, как Гарлем, раньше можно было увидеть только в голливудских боевиках. Никто не думал, что они могут появиться и у ... 9.7 10 3
Info! Золотая раздача, скачанное не засчитывается.
Торрент: Зарегистрирован [2010-12-30 20:20] · скачан: 59 раз
Статус: √ проверено
Размер: 43.25 GB
Как cкачать? Как скачать Брат за брата через торрент | qTorrent



Последний раз редактировалось: SLAYERMADES (2010-12-30 20:20), всего редактировалось 6 раз(а)

28-11-2019 20:33  

Отключить всю рекламу на сайте

24-12-2010 06:48 Брат за брата Скачать торрент  

Огромное Спасибо раздающему, сереал отличный.
Когда ждать следующих серий.pb.wtf



25-12-2010 05:04 Брат за брата Скачать торрент  

спасибоpb.wtf



25-12-2010 08:03 Брат за брата Скачать торрент  

Огромное спасибо!!!.pb.wtf



28-12-2010 20:04 Брат за брата Скачать торрент  

афигет спасиба :pleasantry: :good2:pb.wtf



30-12-2010 01:10 Брат за брата Скачать торрент  

А как на счёт есчё двух серий.pb.wtf



11-01-2011 16:15 Брат за брата Скачать торрент  

!!!pb.wtf



    Дорогой пользователь! Огромная просьба, поблагодарите релизера, оцените раздачу и оставьте свои комментарий, если Вы скачали Брат за брата через торрент бесплатно! Внесите свою лепту в развитие PiratBit!
    Комментировать посты могут только пользователи прошедшие не сложную регистрацию
    Показать сообщения:    

    Брат за брата через торрент
    Скачать бесплатно Брат за брата
    Брат за брата скачать торрент
    Брат за брата смотреть онлайн
    Cкачать фильм Брат за брата бесплатно
    Брат за брата скачать торрент в хорошем качестве
    Брат за брата смотреть онлайн бесплатно в хорошем качестве


    Вы не можете начинать темы
    Вы не можете отвечать на сообщения
    Вы не можете редактировать свои сообщения
    Вы не можете удалять свои сообщения
    Вы не можете голосовать в опросах
    Вы не можете прикреплять файлы к сообщениям
    Вы можете скачивать файлы