Ссылка на приватное зеркало всего за 1$. Внимание количество ограничено!!!

iTunes

1+1

iTunes

мы

WEB-DL

1

iTunes

Чернобыль

iTunes

Ральф против интернета

Лицензия

ПШазам

Лицензия

Оно 2

Лицензия

30
pack

Вам бонус

ВАЖНО

!!Акция!!

Alien_RageХит недели

RePack

Resident Evil 21

ИГРА 18+

pack

RePack

jed

!!Акция!!

Alien_Rage

RePack

fifa19

RePack

Assassins Creed: Odyssey

RePack

NEED FOR SPEED™ PAYBACK

3 сезон

9 сезон

Бесстыжие 9 сезон

Все сериалы

все сериалы на PB.wtf

RePack

FAR CRY 5
Ребята, катастрофически не хватает 1900р. для оплаты серверов за Октябрь (всвязи с блокировками трафик упал в 3 раза), 1-2р., выручайте.
  

Ограбление века / The Hatton Garden Job (Ронни Томпсон) [2017, боевик, триллер, криминал, BDRip] DUB [iTunes] pb.wtf

Ограбление века через торрент pb.wtf

Раздают: 1 [ 0 KB/s ]
Размер: 1.42 GB | Добавлен: 1 год 1 мес. назад | Торрент скачан:752 раза
Скачать  

13-11-2018 11:29 Ограбление века Скачать торрент  

Ограбление века / The Hatton Garden Job«Реальная история о самом дерзком ограблении»
Год выпуска: 2017
Страна: Великобритания
Жанр: боевик, триллер, криминал
Продолжительность: 01:32:43
Перевод: Профессиональный (полное дублирование) | iTunes
Субтитры: Отсутствует
Реклама: Отсутствует
Режиссер: Ронни Томпсон
В ролях:
Пол Мэттью Гуд, Джоэли Ричардсон, Стивен Мойер, Клайв Расселл, Уоррен Браун, Дэвид Колдер, Ларри Ламб, Фил Дэниелс, Джек Дулан, Джон Элфорд
Описание:
Реальная история о самом масштабном ограблении в Великобритании. Налётчикам удалось вынести из надёжно защищённого банковского хранилища наличные и ценности на сумму в 200 миллионов фунтов. Воспользовавшись своим богатым жизненным опытом, преступники придумали отличный план, в котором рассчитали каждый шаг буквально по минутам. Это дерзкое ограбление наделало много шуму и сделало всех его участников «знаменитостями».
Рейтинг:

MPAA: R - Лицам до 17 лет обязательно присутствие взрослого
Качество: BDRip | BDRemux 1080p |
Формат: AVI
Видео: XviD, 704x384, 23.976 fps, 1797 kbps
Аудио : AC3, 6 ch, 384 kbps | RUS (iTunes)
General
Complete name : E:\The.Hatton.Garden.Job.2017.BDRip.1.41Gb.MegaPeer.avi
Format : AVI
Format/Info : Audio Video Interleave
File size : 1.42 GiB
Duration : 1 h 32 min
Overall bit rate : 2 191 kb/s
Writing application : VirtualDubMod 1.5.10.3 | www.virtualdub-fr.org || (build 2550/release)
Writing library : VirtualDubMod build 2550/release
IsTruncated : Yes

Video
ID : 0
Format : MPEG-4 Visual
Format profile : Advanced Simple@L5
Format settings, BVOP : 1
Format settings, QPel : No
Format settings, GMC : No warppoints
Format settings, Matrix : Custom
Codec ID : XVID
Codec ID/Hint : XviD
Duration : 1 h 32 min
Bit rate : 1 711 kb/s
Width : 704 pixels
Height : 384 pixels
Display aspect ratio : 1.85:1
Frame rate : 23.976 (24000/1001) FPS
Color space : YUV
Chroma subsampling : 4:2:0
Bit depth : 8 bits
Scan type : Progressive
Compression mode : Lossy
Bits/(Pixel*Frame) : 0.264
Stream size : 1.11 GiB (78%)
Writing library : XviD 73

Audio
ID : 1
Format : AC-3
Format/Info : Audio Coding 3
Format settings, Endianness : Big
Codec ID : 2000
Duration : 1 h 32 min
Bit rate mode : Constant
Bit rate : 384 kb/s
Channel(s) : 6 channels
Channel positions : Front: L C R, Side: L R, LFE
Sampling rate : 48.0 kHz
Frame rate : 31.250 FPS (1536 SPF)
Bit depth : 16 bits
Compression mode : Lossy
Stream size : 255 MiB (18%)
Alignment : Split accross interleaves
Service kind : Complete Main
pb.wtf



Скачать Ограбление века через торрент https://a.radikal.ru/a27/1811/81/048df0e20030.jpg Скачать фильм Ограбление века через торрент бесплантно в хорошем качестве Описание: Реальная история о самом масштабном ограблении в Великобритании. Налётчикам удалось вынести из надёжно защищённого банковского ... 9.4 10 15
Торрент: Зарегистрирован [2018-11-13 11:29] · скачан: 752 раз
Статус: √ проверено
Размер: 1.42 GB
Как cкачать? Как скачать Ограбление века через торрент | qTorrent

% Раздел Тема Автор DL S | L
Фильмы 2018 [DVDrip, WEB-DLRip, HDrip] (DUB, MVO) [ 1.42 GB ] Ограбление века / The Hatton Garden Job [2017 BDRip] - Twi7ter Скачать
2 | 0
Фильмы [HD 720p, 1080p] (Хороший звук DUB, MVO) [ 3.31 GB ] Ограбление века / The Hatton Garden Job [2017 BDRip 720p] sheker187 Скачать
2 | 0
Фильмы [HD 720p, 1080p] (Хороший звук DUB, MVO) [ 4.35 GB ] Ограбление века / The Hatton Garden Job [2017 BDRip 1080p HEVC ()] Мичман37 Скачать
1 | 0
Фильмы [HD 720p, 1080p] (Хороший звук DUB, MVO) [ 9.08 GB ] Ограбление века / The Hatton Garden Job [2017 BDRip 1080p] sheker187 Скачать
2 | 0
Фильмы 2018 [DVDrip, WEB-DLRip, HDrip] (DUB, MVO) [ 2.03 GB ] Ограбление века / The Hatton Garden Job [2017 BDRip-AVC] sheker187 Скачать
4 | 0
Фильмы (Blu-ray, BD-Remux, HDDVD) [ 17.1 GB ] Ограбление века / The Hatton Garden Job [2017 BDRemux 1080p] sheker187 Скачать
1 | 0

28-11-2019 20:33  

Отключить всю рекламу на сайте

    Дорогой пользователь! Огромная просьба, поблагодарите релизера, оцените раздачу и оставьте свои комментарий, если Вы скачали Ограбление века через торрент бесплатно! Внесите свою лепту в развитие PiratBit!
    Комментировать посты могут только пользователи прошедшие не сложную регистрацию
    Показать сообщения:    

    Ограбление века через торрент
    Скачать бесплатно Ограбление века
    Ограбление века скачать торрент
    Ограбление века смотреть онлайн
    Cкачать фильм Ограбление века бесплатно
    Ограбление века скачать торрент в хорошем качестве
    Ограбление века смотреть онлайн бесплатно в хорошем качестве


    Вы не можете начинать темы
    Вы не можете отвечать на сообщения
    Вы не можете редактировать свои сообщения
    Вы не можете удалять свои сообщения
    Вы не можете голосовать в опросах
    Вы не можете прикреплять файлы к сообщениям
    Вы можете скачивать файлы