новый адрес
Мега распродажа FORZA HORIZON 4 ULTIMATE+ВСЕ DLC+ОНЛАЙН всего за 499р. 349 руб. (супер цена). Внимание количество ограничено!!!

iTunes

1+1

iTunes

мы

iTunes

1

iTunes

Чернобыль

iTunes

Ральф против интернета

Лицензия

ПШазам

Лицензия

Игра престолов

Лицензия

30
pack

ВАЖНО

!!Акция!!

Alien_RageХит недели

RePack

Resident Evil 21

ИГРА 18+

pack

RePack

Metro:Exodus

!!Акция!!

Alien_Rage

RePack

fifa19

RePack

Assassins Creed: Odyssey

RePack

NEED FOR SPEED™ PAYBACK

3 сезон

9 сезон

Бесстыжие 9 сезон

Все сериалы

все сериалы на PB.wtf

RePack

FAR CRY 5
Ребята, катастрофически не хватает 1900р. для оплаты серверов за Октябрь (всвязи с блокировками трафик упал в 3 раза), 1-2р., выручайте.
  

Подранки (Николай Губенко) [1976 г., Драма, WEBRip-AVC] pb.wtf

Подранки через торрент pb.wtf

Размер: 1.37 GB | Добавлен: 1 год назад | Торрент скачан:20 раз
Скачать  

13-11-2018 12:48 Подранки Скачать торрент  

Подранки
Год выпуска: 1976
Страна: СССР
Жанр: Драма
Продолжительность: 01:28:09
Субтитры: Отсутствуют

Режиссер: Николай Губенко



В ролях: Юозас Будрайтис, Георгий Бурков, Александр Калягин, Алексей Черствов, Бухути Закариадзе, Жанна Болотова, Ролан Быков, Евгений Евстигнеев, Николай Губенко, Наталья Гундарева и др.

Описание: Один из лучших фильмов советского кино - трагедия беспризорного послевоенного детства. Это рассказ писателя Алексея Бертенева, разыскивающего своих братьев. Всех их в детские годы разметала по жизни война. Один был усыновлён состоятельными и благополучными людьми и сам вырос в состоятельного благополучного архитектора. Другой стал вором-рецидивистом. Сестра, после гибели на фронте отца и самоубийства матери, до четырнадцати лет заботилась о самом младшем в семье ребёнке - о рассказчике. Они вместе голодали и воровали пропитание. Потом она умерла. А Алексею повезло - он попал в подмосковный детский дом, расположенный в старинном имении. И там, в окружении искалеченных войной детей и не менее искалеченных войной педагогов, формировался как личность. Встречаясь с братьями - по существу, чужими людьми - герой всё сильнее ощущает одиночество, а зритель понимает, что именно это одиночество и есть главная трагедия человека и человечества...

Качество: WEBRip-AVC
Формат: MKV
Видео кодек: H.264
Аудио кодек: AC3
Видео: H.264, 920x600 , 25.0fps, 2000 Kbps
Аудио#1: AC3 , 2 ch , 48 kHz , 224 kbps
скриншот   скриншот   скриншот   скриншот  

General
Unique ID : 55866202941598179686446226407277484762 (0x2A077076C7C2F0585472596435045ADA)
Complete name : D:Podranki_1976_WEBRip_AVC.mkv
Format : Matroska
Format version : Version 4 / Version 2
File size : 1.37 GiB
Duration : 1 h 28 min
Overall bit rate mode : Constant
Overall bit rate : 2 228 kb/s
Encoded date : UTC 2017-12-09 17:50:03
Writing application : Lavf57.71.100
Writing library : Lavf57.71.100
ErrorDetectionType : Per level 1

Video
ID : 1
Format : AVC
Format/Info : Advanced Video Codec
Format profile : Main@L3.1
Format settings, CABAC : Yes
Format settings, ReFrames : 1 frame
Format settings, GOP : M=1, N=25
Codec ID : V_MPEG4/ISO/AVC
Duration : 1 h 28 min
Bit rate mode : Constant
Bit rate : 2 000 kb/s
Width : 920 pixels
Height : 600 pixels
Display aspect ratio : 3:2
Frame rate mode : Constant
Frame rate : 25.000 FPS
Color space : YUV
Chroma subsampling : 4:2:0
Bit depth : 8 bits
Scan type : Progressive
Bits/(Pixel*Frame) : 0.145
Stream size : 1.21 GiB (88%)
Language : English
Default : Yes
Forced : No
DURATION : 01:28:09.560000000

Audio
ID : 2
Format : AC-3
Format/Info : Audio Coding 3
Format settings, Endianness : Big
Codec ID : A_AC3
Duration : 1 h 28 min
Bit rate mode : Constant
Bit rate : 224 kb/s
Channel(s) : 2 channels
Channel positions : Front: L R
Sampling rate : 48.0 kHz
Frame rate : 31.250 FPS (1536 spf)
Bit depth : 16 bits
Compression mode : Lossy
Stream size : 141 MiB (10%)
Service kind : Complete Main
Default : Yes
Forced : No
DURATION : 01:28:09.600000000

pb.wtf



Скачать Подранки через торрент http://pic1.kartinco.top/images/11/l38dq.jpg Скачать фильм Подранки через торрент бесплантно в хорошем качестве Описание: Один из лучших фильмов советского кино - трагедия беспризорного послевоенного детства. Это рассказ писателя Алексея Бертенева, ... 10 10 2
Торрент: Зарегистрирован [2018-11-13 12:48] · скачан: 20 раз
Статус: √ проверено
Размер: 1.37 GB
Как cкачать? Как скачать Подранки через торрент | qTorrent


>> Регистрируемся здесь <<






Отзывы и комментарии о схеме читаем и пишем здесь: ---> Отзывы и комментарии о схеме

Новые благодарочки в телеграм довольных пользователей:
скриншот   скриншот   скриншот   скриншот   скриншот

15-11-2018 21:15 Подранки Скачать торрент  

Крутой фильм , зря не качаете .pb.wtf



    Дорогой пользователь! Огромная просьба, поблагодарите релизера, оцените раздачу и оставьте свои комментарий, если Вы скачали Подранки через торрент бесплатно! Внесите свою лепту в развитие PiratBit!
    Комментировать посты могут только пользователи прошедшие не сложную регистрацию
    Показать сообщения:    

    Подранки через торрент
    Скачать бесплатно Подранки
    Подранки скачать торрент
    Подранки смотреть онлайн
    Cкачать фильм Подранки бесплатно
    Подранки скачать торрент в хорошем качестве
    Подранки смотреть онлайн бесплатно в хорошем качестве


    Вы не можете начинать темы
    Вы не можете отвечать на сообщения
    Вы не можете редактировать свои сообщения
    Вы не можете удалять свои сообщения
    Вы не можете голосовать в опросах
    Вы не можете прикреплять файлы к сообщениям
    Вы можете скачивать файлы