Ссылка на приватное зеркало нашего сайта всего за 1$. Внимание количество ограничено!!!

2 сезон

iTunes

1 сезон

1

2 сезон

2 сезон

iTunes

1 сезон

RePack

30

Новинка

ВАЖНО

ИГРА 18+

pack

RePack

MK11
pack

Забери бонус

RePack

jed

!!Акция!!

Alien_Rage

RePack

fifa19

RePack

Assassins Creed: Odyssey

RePack

NEED FOR SPEED™ PAYBACK

4 сезон

9 сезон

Бесстыжие 9 сезон

Все сериалы

все сериалы на PB.wtf

RePack

FAR CRY 5
  

Импульс / Impulse / Сезон: 1 / Серии: 1-10 из 10 (Майрзи Алмас, Шерин Дабис, Эд Фрэйман) [2018, фантастика, боевик, WEB-DL 1080p] [MVO] (TVShows) pb.wtf

Импульс через торрент pb.wtf

Размер: 9.83 GB | Добавлен: 2 года назад | Торрент скачан:103 раза
Скачать  

13-11-2018 13:39 Импульс Скачать торрент  

Импульс | Impulse
Год выпуска: 2018
Страна: США
Жанр: фантастика, боевик
Продолжительность: 00:47:00
Перевод: Профессиональный (многоголосый закадровый) TVShows

Режиссёр: Майрзи Алмас, Шерин Дабис, Эд Фрэйман

В ролях: Мэдди Хэссон, Сара Дежарден, Энука Окума, Крэйг Арнольд, Таннер Стайн, Киган Майкл-Ки, Мисси Пайл, Мэтт Гордон, Дэвид Джеймс Эллиот, Каллум Кит Ренни, Дэниел Маслани, Женевьев Канг, Гэбриел Дарку, Эйдан Дивайн, Шон Дойл, Тара Розлинг, Гордон Харпер, Дилан Троубридж, Кион Александр, Рафаэль Берджерон-Лапуант, Роуан Мед, Джеффри Паунсент, Пола Бодро, Майкл Ревентар, Рейчел Уилсон и др.
Описание: 16-летняя Генри Коулс всю жизнь чувствовала себя «другой» и мечтала выбраться из душного маленького городка. Однажды она попадает в передрягу, вступив в конфликт с наркоторговцем. Происшествие меняет в ее жизни все и пробуждает в ней сверхъестественные способности к телепортации. Но радость омрачается появлением новых врагов, уже мелькающих на горизонте.

скриншот  

Качество: WEB-DL 1080p
Формат: MKV
Видео: AVC, 1920x1080 (16:9), 23.976 fps, ~2 500 kb/s
Аудио Rus: AC3, 48.0 KHz, 6 channels, 384 kbps | TVShows
Аудио Eng: AAC, 48.0 KHz, 6 channels, 384 kbps | Original
Субтитры: Eng
General
Unique ID : 62378401894988830360284424769737005161 (0x2EEDA4A95CA7CD90EF0D275B30DF1869)
Complete name : G:\1080р. TVShows\Impulse.S01.1080p.TVShows\Impulse.S01E01.1080p.TVShows.mkv
Format : Matroska
Format version : Version 4 / Version 2
File size : 1.06 GiB
Duration : 47 min 17 s
Overall bit rate : 3 223 kb/s
Encoded date : UTC 2018-10-01 09:13:12
Writing application : mkvmerge v24.0.0 ('Beyond The Pale') 64-bit
Writing library : libebml v1.3.6 + libmatroska v1.4.9

Video
ID : 1
Format : AVC
Format/Info : Advanced Video Codec
Format profile : High@L4
Format settings, CABAC : Yes
Format settings, ReFrames : 2 frames
Codec ID : V_MPEG4/ISO/AVC
Duration : 47 min 17 s
Bit rate : 2 452 kb/s
Width : 1 920 pixels
Height : 1 080 pixels
Display aspect ratio : 16:9
Frame rate mode : Constant
Frame rate : 23.976 (24000/1001) FPS
Color space : YUV
Chroma subsampling : 4:2:0
Bit depth : 8 bits
Scan type : Progressive
Bits/(Pixel*Frame) : 0.049
Stream size : 829 MiB (76%)
Default : Yes
Forced : No
Color range : Limited
Color primaries : BT.709
Transfer characteristics : BT.709
Matrix coefficients : BT.709

Audio #1
ID : 2
Format : AC-3
Format/Info : Audio Coding 3
Mode extension : CM (complete main)
Format settings, Endianness : Big
Codec ID : A_AC3
Duration : 47 min 17 s
Bit rate mode : Constant
Bit rate : 384 kb/s
Channel(s) : 6 channels
Channel positions : Front: L C R, Side: L R, LFE
Sampling rate : 48.0 kHz
Frame rate : 31.250 FPS (1536 spf)
Bit depth : 16 bits
Compression mode : Lossy
Stream size : 130 MiB (12%)
Title : TVShows
Language : Russian
Default : Yes
Forced : Yes

Audio #2
ID : 3
Format : AAC
Format/Info : Advanced Audio Codec
Format profile : LC
Codec ID : A_AAC
Duration : 47 min 17 s
Bit rate : 384 kb/s
Channel(s) : 6 channels
Channel positions : Front: L C R, Side: L R, LFE
Sampling rate : 48.0 kHz
Frame rate : 46.875 FPS (1024 spf)
Compression mode : Lossy
Stream size : 130 MiB (12%)
Title : Original
Language : English
Default : No
Forced : No

Text
ID : 4
Format : UTF-8
Codec ID : S_TEXT/UTF8
Codec ID/Info : UTF-8 Plain Text
Duration : 46 min 2 s
Bit rate : 66 b/s
Count of elements : 877
Stream size : 22.6 KiB (0%)
Title : English
Language : English
Default : No
Forced : No
скриншот  скриншот  скриншот  
pb.wtf



Скачать Импульс через торрент http://i105.fastpic.ru/big/2018/0612/22/b92ebb271eaffb7b898762e2d2641222.jpg Скачать фильм Импульс через торрент бесплантно в хорошем качестве Описание: 16-летняя Генри Коулс всю жизнь чувствовала себя «другой» и мечтала выбраться из душного маленького городка. Однажды она попадает ... 10 10 1
Торрент: Зарегистрирован [2018-11-13 13:39] · скачан: 103 раз
Статус: √ проверено
Размер: 9.83 GB
Как cкачать? Как скачать Импульс через торрент | qTorrent

% Раздел Тема Автор DL S | L
Зарубежные сериалы [ 23.56 GB ] Импульс / Impulse / Сезон: 2 / Серии: 1-10 из 10 [2019 WEB-DL 720p] MVO [Jaskier] bober100 Скачать
1 | 0
Зарубежные сериалы [ 6.27 GB ] Импульс / Impulse / Сезон: 2 / Серии: 1-10 из 10 [2019 WEB-DLRip] MVO [Jaskier] bober100 Скачать
1 | 0
Зарубежные сериалы [ 8.99 GB ] Импульс / Impulse / Сезон: 2 / Серии: 1-10 из 10 [2019 WEB-DLRip] [MVO] killermax2013 Скачать
1 | 0
Зарубежные сериалы [ 6.48 GB ] Импульс / Impulse / Сезон: 2 / Серии: 1-10 из 10 [2019 WEB-DL 720p] [MVO] killermax2013 Скачать
1 | 0
Зарубежные сериалы [ 9.9 GB ] Импульс / Impulse / Сезон: 2 / Серии: 1-10 из 10 [2019 WEB-DL 1080p] [MVO] killermax2013 Скачать
1 | 0
Зарубежные сериалы [ 47.61 GB ] Импульс / Impulse / Сезон: 2 / Серии: 1-10 из 10 [2019 WEB-DL 2160p] [MVO] killermax2013 Скачать
1 | 0
Зарубежные сериалы [ 30.06 GB ] Импульс / Impulse / Сезон: 2 / Серии: 1-10 из 10 [2019 WEB-DL 1080p] MVO [IdeaFilm] bober100 Скачать
1 | 0

28-11-2019 20:33  

Отключить всю рекламу на сайте

    Дорогой пользователь! Огромная просьба, поблагодарите релизера, оцените раздачу и оставьте свои комментарий, если Вы скачали Импульс через торрент бесплатно! Внесите свою лепту в развитие PiratBit!
    Комментировать посты могут только пользователи прошедшие не сложную регистрацию
    Показать сообщения:    

    Импульс через торрент
    Скачать бесплатно Импульс
    Импульс скачать торрент
    Импульс смотреть онлайн
    Cкачать фильм Импульс бесплатно
    Импульс скачать торрент в хорошем качестве
    Импульс смотреть онлайн бесплатно в хорошем качестве


    Вы не можете начинать темы
    Вы не можете отвечать на сообщения
    Вы не можете редактировать свои сообщения
    Вы не можете удалять свои сообщения
    Вы не можете голосовать в опросах
    Вы не можете прикреплять файлы к сообщениям
    Вы можете скачивать файлы