Ссылка на приватное зеркало нашего сайта всего за 1$. Внимание количество ограничено!!!

2 сезон

iTunes

1 сезон

1

2 сезон

2 сезон

iTunes

1 сезон

RePack

30

Ultimate

ВАЖНО

ИГРА 18+

pack

RePack

MK11
pack

Забери бонус

RePack

jed

!!Акция!!

Alien_Rage

RePack

fifa19

RePack

Assassins Creed: Odyssey

RePack

NEED FOR SPEED™ PAYBACK

4 сезон

9 сезон

Бесстыжие 9 сезон

Все сериалы

все сериалы на PB.wtf

RePack

FAR CRY 5
  

Олденхайм 12 / De 12 van Oldenheim / Сезон: 1 / Серии: 1-12 из 12 (Энн ван Дер Линден / Anne van der Linden, Реми ван Хойтен) [2017, драма, детектив, триллер, WEB-DLRip] [MVO] (ShowJet) pb.wtf

Олденхайм 12 через торрент pb.wtf

Размер: 6.48 GB | Добавлен: 2 года назад | Торрент скачан:68 раз
Скачать  

13-11-2018 14:06 Олденхайм 12 Скачать торрент  

Олденхайм 12 / De 12 van Oldenheim Год выпуска: 2017
Страна: Нидерланды
Жанр: Драма, детектив, триллер
Продолжительность: ~00:45:00
Перевод: Профессиональный (многоголосый закадровый) (ShowJet)

Режиссёр: Энн ван дер Линден / Anne van der Linden, Реми ван Хойтен / Remy van Heugten
В ролях: Насрдин Дчар, Нуртье Херлар, Рейну Буссемакер, Федя ван Хюэт, Саскиа Темминк, Ко Зондфлит, Мишель Нутер, Эллис ван ден Бринк, Аус Грейданус, Ольга Зюйдерхоек

Описание: Мистический триллер о 12 загадочных исчезновениях.

Военные объявляют голландскую деревушку Олденхайм опасной зоной и спешно эвакуируют людей. Что здесь случилось?

Все началось 7 месяцев назад: 16-летняя Нина исчезла одной чудесной летней ночью, когда весь город наблюдал уникальное природное явление. В канаве нашли велосипед девушки, но никаких следов самой Нины или её похитителей. Следом один за другим пропали ещё несколько местных. Ни одно тело не было обнаружено. Серийный убийца, инопланетяне, заговор, совместный побег? У полиции много разных версий, а вот ответов почти никаких...

ratingскриншот  

Качество: WEB-DLRip
Контейнер: AVI
Видео: XviD, 1600 Кбит/с, 720х400
Аудио: AC3, 48 kHz, 2 ch, ~192 kbps
Субтитры: Отсутствуют
General
Complete name : E:\Олденхайм 12\1 серия.avi
Format : AVI
Format/Info : Audio Video Interleave
File size : 553 MiB
Duration : 42 min 55 s
Overall bit rate : 1 802 kb/s
Writing application : VirtualDubMod 1.5.10.3 | www.virtualdub-fr.org || (build 2550/release)
Writing library : VirtualDubMod build 2550/release

Video
ID : 0
Format : MPEG-4 Visual
Format profile : Advanced Simple@L5
Format settings : BVOP2 / Custom Matrix
Format settings, BVOP : 2
Format settings, QPel : No
Format settings, GMC : No warppoints
Format settings, Matrix : Custom
Codec ID : XVID
Codec ID/Hint : XviD
Duration : 42 min 55 s
Bit rate : 1 530 kb/s
Width : 720 pixels
Height : 400 pixels
Display aspect ratio : 16:9
Frame rate : 25.000 FPS
Color space : YUV
Chroma subsampling : 4:2:0
Bit depth : 8 bits
Scan type : Progressive
Compression mode : Lossy
Bits/(Pixel*Frame) : 0.212
Stream size : 470 MiB (85%)
Writing library : XviD 73

Audio
ID : 1
Format : AC-3
Format/Info : Audio Coding 3
Format settings, Endianness : Big
Codec ID : 2000
Duration : 42 min 55 s
Bit rate mode : Constant
Bit rate : 192 kb/s
Channel(s) : 2 channels
Channel positions : Front: L R
Sampling rate : 48.0 kHz
Frame rate : 31.250 FPS (1536 SPF)
Bit depth : 16 bits
Compression mode : Lossy
Stream size : 59.0 MiB (11%)
Alignment : Split accross interleaves
Service kind : Complete Main
скриншот  скриншот  скриншот  
pb.wtf



Скачать Олденхайм 12 через торрент http://i97.fastpic.ru/big/2018/1108/c1/fe41119f2866bae6c9a9ead815d11ac1.jpg Скачать фильм Олденхайм 12 через торрент бесплантно в хорошем качестве Описание: Мистический триллер о 12 загадочных исчезновениях.Военные объявляют голландскую деревушку Олденхайм опасной зоной и спешно ... 9 10 1
Торрент: Зарегистрирован [2018-11-13 14:06] · скачан: 68 раз
Статус: √ проверено
Размер: 6.48 GB
Как cкачать? Как скачать Олденхайм 12 через торрент | qTorrent

% Раздел Тема Автор DL S | L
Зарубежные сериалы [ 17.42 GB ] Олденхайм 12 / De 12 van Oldenheim / Сезон: 1 / Серии: 1-12 из 12 [2017 WEB-DL 1080p] [MVO] killermax2013 Скачать
1 | 0

28-11-2019 20:33  

Отключить всю рекламу на сайте

    Дорогой пользователь! Огромная просьба, поблагодарите релизера, оцените раздачу и оставьте свои комментарий, если Вы скачали Олденхайм 12 через торрент бесплатно! Внесите свою лепту в развитие PiratBit!
    Комментировать посты могут только пользователи прошедшие не сложную регистрацию
    Показать сообщения:    

    Олденхайм 12 через торрент
    Скачать бесплатно Олденхайм 12
    Олденхайм 12 скачать торрент
    Олденхайм 12 смотреть онлайн
    Cкачать фильм Олденхайм 12 бесплатно
    Олденхайм 12 скачать торрент в хорошем качестве
    Олденхайм 12 смотреть онлайн бесплатно в хорошем качестве


    Вы не можете начинать темы
    Вы не можете отвечать на сообщения
    Вы не можете редактировать свои сообщения
    Вы не можете удалять свои сообщения
    Вы не можете голосовать в опросах
    Вы не можете прикреплять файлы к сообщениям
    Вы можете скачивать файлы