новый адрес
Ссылка на приватное зеркало всего за 1$. Внимание количество ограничено!!!

iTunes

1+1

iTunes

мы

iTunes

1

iTunes

Чернобыль

iTunes

Ральф против интернета

Лицензия

ПШазам

Лицензия

Оно 2

Лицензия

30
pack

Вам бонус

ВАЖНО

!!Акция!!

Alien_RageХит недели

RePack

Resident Evil 21

ИГРА 18+

pack

RePack

jed

!!Акция!!

Alien_Rage

RePack

fifa19

RePack

Assassins Creed: Odyssey

RePack

NEED FOR SPEED™ PAYBACK

3 сезон

9 сезон

Бесстыжие 9 сезон

Все сериалы

все сериалы на PB.wtf

RePack

FAR CRY 5
Ребята, катастрофически не хватает 1900р. для оплаты серверов за Октябрь (всвязи с блокировками трафик упал в 3 раза), 1-2р., выручайте.
  

Король вне закона / Outlaw King (Дэвид Маккензи) [2018 г., боевик, драма, биография, история, WEBRip, Дубляж "Невафильм"](NETFLIX) pb.wtf

Король вне закона через торрент pb.wtf

Раздают: 2 [ 0 KB/s ]
Размер: 721 MB | Добавлен: 1 год назад | Торрент скачан:323 раза
Скачать  

13-11-2018 18:52 Король вне закона Скачать торрент  

Король вне закона / Outlaw King
Год выпуска: 2018
Страна: Великобритания, США / Sigma Films,Anonymous Content,Clockwork Sessions
Жанр: боевик, драма, биография, история
Продолжительность: 02:01:02
Перевод: Дубляж (Невафильм)
Субтитры: Русские форсированные - вшитые

Режиссер: Дэвид Маккензи

rating

В ролях: Крис Пайн, Стивен Диллэйн, Rebecca Robin, Билли Хоул, Пол Блэр, Сэм Спруэлл, Джонатан Филлипс, Ben Clifford, Джэми МакЛахлан, Данкан Лакруа

Описание: История Роберта Брюса, одного из величайших шотландских монархов, организатора обороны страны в начальный период войны за независимость против Англии.

Качество: WEBRip
Формат: AVI
Видео кодек: XviD
Аудио кодек: MP3
Видео: 640x272 (2.35:1), 24.000 fps, XviD build 50 ~695 kbps avg, 0.17 bit/pixel
Аудио: 48 kHz, MPEG Layer 3, 2 ch, ~128.00 kbps avg
скриншот   скриншот   скриншот   скриншот  

Общее
Полное имя : F:\ФИЛЬМЫ\Король вне закона.2018.D.WEBRip.avi
Формат : AVI
Формат/Информация : Audio Video Interleave
Размер файла : 721 Мбайт
Продолжительность : 2 ч. 1 м.
Общий поток : 833 Кбит/сек
Программа кодирования : VirtualDubMod 1.5.10.3 | www.virtualdub-fr.org || (build 2550/release)
Библиотека кодирования : VirtualDubMod build 2550/release

Видео
Идентификатор : 0
Формат : MPEG-4 Visual
Профиль формата : Advanced Simple@L5
Настройки формата : BVOP1
Параметр BVOP формата : 1
Параметр QPel формата : Нет
Параметр GMC формата : Без точки перехода
Параметр матрицы формата : Default (MPEG)
Идентификатор кодека : XVID
Идентификатор кодека/Подсказка : XviD
Продолжительность : 2 ч. 1 м.
Битрейт : 696 Кбит/сек
Ширина : 640 пикселей
Высота : 272 пикселя
Соотношение сторон : 2,35:1
Частота кадров : 24,000 кадра/сек
Цветовое пространство : YUV
Субдискретизация насыщенности : 4:2:0
Битовая глубина : 8 бит
Тип развёртки : Прогрессивная
Метод сжатия : С потерями
Бит/(Пиксели*Кадры) : 0.167
Размер потока : 602 Мбайт (84%)
Библиотека кодирования : XviD 1.2.1 (UTC 2008-12-04)

Аудио
Идентификатор : 1
Формат : MPEG Audio
Версия формата : Version 1
Профиль формата : Layer 3
Настройки формата : Joint stereo / MS Stereo
Идентификатор кодека : 55
Идентификатор кодека/Подсказка : MP3
Продолжительность : 2 ч. 1 м.
Вид битрейта : Постоянный
Битрейт : 128 Кбит/сек
Каналы : 2 канала
Частота : 48,0 КГц
Частота кадров : 41,667 кадра/сек (1152 SPF)
Метод сжатия : С потерями
Размер потока : 111 Мбайт (15%)
Выравнивание : Соединение по промежуткам
Продолжительность промежутка : 42 мс. (1,00 видеокадр)
Время предзагрузки промежутка : 504 мс.
Библиотека кодирования : LAME3.99r
Настройки программы : -m j -V 4 -q 2 -lowpass 17 -b 128

pb.wtf



Скачать Король вне закона через торрент http://pic1.kartinco.top/images/11/q3g8g.jpg Скачать фильм Король вне закона через торрент бесплантно в хорошем качестве Описание: История Роберта Брюса, одного из величайших шотландских монархов, организатора обороны страны в начальный период войны за ... 8.4 10 7
Торрент: Зарегистрирован [2018-11-13 18:52] · скачан: 323 раз
Статус: √ проверено
Размер: 721 MB
Как cкачать? Как скачать Король вне закона через торрент | qTorrent

% Раздел Тема Автор DL S | L
Фильмы (WEB-DL 720p, 1080p) [ 13.43 GB ] Король вне закона / Outlaw King [2018 биография история WEBRip 1080p] + [MVO] killermax2013 Скачать
2 | 0
Фильмы 2018 [DVDrip, WEB-DLRip, HDrip] (DUB, MVO) [ 1.45 GB ] Король вне закона / Outlaw King [2018 биография история WEBRip] DUB [Невафильм] -Lexx- Скачать
11 | 0
Фильмы (WEB-DL 720p, 1080p) [ 13.21 GB ] Король вне закона / Outlaw King [2018 биография история WEBRip 1080p] MVO [NewStudio] +DUB [Невафильм] bober100 Скачать
2 | 0
Фильмы (WEB-DL 720p, 1080p) [ 3.19 GB ] Король вне закона / Outlaw King [2018 биография история WEBRip 720p] DUB [Невафильм] bober100 Скачать
9 | 0
Ultra HD (UHD: 2K, 4K, 8K) — видео сверхвысокой чёткости [ 16 GB ] Король вне закона / Outlaw King [2018 биография UHD WEBRip 2160p] DUB [Невафильм] sheker187 Скачать
1 | 0

28-11-2019 20:33  

Отключить всю рекламу на сайте

17-11-2018 09:45 Король вне закона Скачать торрент  

Нетфликс опять порадовал отлично снятым фильмом с крепким сценарием. Не являясь знатоком истории, все же понимаю, что образ и мотивы Брюса сильно идеализированы и приукрашены. Настоящими героями Первой войны за независимость Шотландии были Уоллес и Эндрю де Морей. Брюсы рубились за Влacть и деньги, причем в начале на стороне англичан. Фильм хорошо иллюстрирует управленческую модель *Не смог предотвратить - возглавь!* Честный человек Дункан - если вернешь мне земли, то пойду за тебя воевать. Настроения шотландской аристократии до начала событий, показанных в фильме, хорошо оценил Алексей *Крыс* Ширяев в песне посвященной Уоллесу:
Бароны печаль поверяют вину
О том, что задешево сдали страну.
Но фильм не учебник, явных противоречий известным фактам нет, нет положительных негрошотландцев, геешотландцев, феминошотландок и подобных нелепых персонажей псевдолиберального пантеона. Даже от пледов и килтов удержались. Получился хороший исторический фильм, не стыдно рекомендовать к просмотру. Качество рипа, перевод и дублирование хорошие. Спасибо за раздачу.pb.wtf



    Дорогой пользователь! Огромная просьба, поблагодарите релизера, оцените раздачу и оставьте свои комментарий, если Вы скачали Король вне закона через торрент бесплатно! Внесите свою лепту в развитие PiratBit!
    Комментировать посты могут только пользователи прошедшие не сложную регистрацию
    Показать сообщения:    

    Король вне закона через торрент
    Скачать бесплатно Король вне закона
    Король вне закона скачать торрент
    Король вне закона смотреть онлайн
    Cкачать фильм Король вне закона бесплатно
    Король вне закона скачать торрент в хорошем качестве
    Король вне закона смотреть онлайн бесплатно в хорошем качестве


    Вы не можете начинать темы
    Вы не можете отвечать на сообщения
    Вы не можете редактировать свои сообщения
    Вы не можете удалять свои сообщения
    Вы не можете голосовать в опросах
    Вы не можете прикреплять файлы к сообщениям
    Вы можете скачивать файлы