Ссылка на приватное зеркало нашего сайта всего за 1$. Внимание количество ограничено!!!

2 сезон

iTunes

1 сезон

1

iTunes

iTunes

iTunes

1 сезон

RePack

30

ИГРА 18+

pack

ВАЖНО

!!Акция!!

Alien_RageХит недели

RePack

MK11
pack

Забери бонус

RePack

jed

!!Акция!!

Alien_Rage

RePack

fifa19

RePack

Assassins Creed: Odyssey

RePack

NEED FOR SPEED™ PAYBACK

4 сезон

9 сезон

Бесстыжие 9 сезон

Все сериалы

все сериалы на PB.wtf

RePack

FAR CRY 5
  

Я не я / Серий: 1 - 4 из 4 (Андрей Красавин) [2008 г., мелодрама, комедия, экранизация, DVDRip] pb.wtf

Я не я через торрент pb.wtf

Размер: 2.74 GB | Добавлен: 1 год 11 мес. назад | Торрент скачан:74 раза
Скачать  

13-11-2018 20:45 Я не я Скачать торрент  

Я не я
«Мечтая стать другим - не потеряй себя»
Год выпуска: 2008
Страна: Россия
Жанр: Мелодрама, комедия, экранизация
Серий: 1 - 4 из 4
Продолжительность: ~ 00:50:56 серия

Режиссер: Андрей Красавин



В ролях: Владислав Галкин, Максим Лагашкин, Алексей Гуськов, Павел Деревянко, Екатерина Стриженова, Александр Робак, Виктория Толстоганова, Екатерина Гусева, Александр Семчев, Владимир Толоконников, Дарья Чаруша, Ольга Ломоносова, София Гугуберидзе, Иван Меньшов, Олег Лопухов, Роман Салун, Елена Медведева, Джемал Тетруашвили, Галина Сафонова, Владимир Меньшов, Светлана Чуйкина, Всеволод Шиловский, Андрей Савостьянов, Владимир Лаптев

Описание: Фильм снят по одноимённой повести Алексея Слаповского.
Главный герой — среднестатистический человек со среднестатистическими параметрами: жена, двое детей, скромная работа, скромная зарплата. В Сергее Неделине нет ничего необычного, кроме одного странного увлечения: любит бродить по вечерним улицам, заглядывать в окна, витрины. Везде бурлит жизнь, и только его существование кажется ему бедным и убогим.
Качество: DVDRip
Формат: AVI
Видео кодек: XviD
Аудио кодек: AC3
Видео: XviD, 1649 Кбит/с, 704x416
Аудиo: Русский, AC3, 2 ch, 192 Кбит/с
Видео
Идентификатор : 0
Формат : MPEG-4 Visual
Профиль формата : Advanced Simple@L5
Параметр BVOP формата : 2
Параметр QPel формата : Нет
Параметр GMC формата : Без точки перехода
Параметр матрицы формата : Default (MPEG)
Режим смешивания : Сжатый битовый поток
Идентификатор кодека : XVID
Идентификатор кодека/Подсказка : XviD
Продолжительность : 50 м. 56 с.
Битрейт : 1649 Кбит/сек
Ширина : 704 пикселя
Высота : 416 пикселей
Соотношение сторон : 5:3
Частота кадров : 25,000 кадров/сек
Цветовое пространство : YUV
Субдискретизация насыщенности : 4:2:0
Битовая глубина : 8 бит
Тип развёртки : Прогрессивная
Метод сжатия : С потерями
Бит/(Пиксели*Кадры) : 0.225
Размер потока : 601 Мбайт (89%)
Библиотека кодирования : XviD 1.2.1 (UTC 2008-12-04)

Аудио
Идентификатор : 1
Формат : AC-3
Формат/Информация : Audio Coding 3
Расширение режима : CM (complete main)
Параметр Endianness формата : Big
Идентификатор кодека : 2000
Продолжительность : 50 м. 56 с.
Вид битрейта : Постоянный
Битрейт : 192 Кбит/сек
Каналы : 2 канала
Расположение каналов : Front: L R
Частота : 48,0 КГц
Частота кадров : 31,250 кадров/сек (1536 spf)
Битовая глубина : 16 бит
Метод сжатия : С потерями
Размер потока : 69,9 Мбайт (10%)
Выравнивание : Разделение по промежуткам
Продолжительность промежутка : 40 мс. (1,00 видеокадр)
Время предзагрузки промежутка : 500 мс.

скриншот   скриншот   скриншот   скриншот   скриншот   скриншот  

pb.wtf



Скачать Я не я через торрент http://pic1.kartinco.top/images/11/kdrwr.jpg Скачать фильм Я не я через торрент бесплантно в хорошем качестве Описание: Фильм снят по одноимённой повести Алексея Слаповского. Главный герой — среднестатистический человек со среднестатистическими ... 10 10 1
Info! Золотая раздача, скачанное не засчитывается.
Торрент: Зарегистрирован [2018-11-13 20:45] · скачан: 74 раз
Статус: √ проверено
Размер: 2.74 GB
Как cкачать? Как скачать Я не я через торрент | qTorrent

% Раздел Тема Автор DL S | L
* Аниме [HD 720p, 1080p] [ 1.68 GB ] Я стою на миллионах трупов / 100-man no Inochi no Ue ni Ore wa Tatteiru / Сезон 1 / Серии 1-4 из 12 [2020 Экшен игры сёнен HDTV 1080p] [MVO] GuruBrain Скачать
3 | 0
Наши сериалы [ 2.15 GB ] Я никогда не плачу / Серии: 1-4 из 4 [2016 SATRip-AVC] aleksan55 Скачать
1 | 0

28-11-2019 20:33  

Отключить всю рекламу на сайте

    Дорогой пользователь! Огромная просьба, поблагодарите релизера, оцените раздачу и оставьте свои комментарий, если Вы скачали Я не я через торрент бесплатно! Внесите свою лепту в развитие PiratBit!
    Комментировать посты могут только пользователи прошедшие не сложную регистрацию
    Показать сообщения:    

    Я не я через торрент
    Скачать бесплатно Я не я
    Я не я скачать торрент
    Я не я смотреть онлайн
    Cкачать фильм Я не я бесплатно
    Я не я скачать торрент в хорошем качестве
    Я не я смотреть онлайн бесплатно в хорошем качестве


    Вы не можете начинать темы
    Вы не можете отвечать на сообщения
    Вы не можете редактировать свои сообщения
    Вы не можете удалять свои сообщения
    Вы не можете голосовать в опросах
    Вы не можете прикреплять файлы к сообщениям
    Вы можете скачивать файлы