Всегда рабочее зеркало без VPN и Proxy просто перед .vidak.icu напиши любое слово или цифру, Пример http://9vm8.vidak.icu

MVO

2 сезон

1 сезон

1

1 сезон

iTunes

2 сезон

13

1 сезон

Deluxe

pack

Рекомендуем

Пиратка

30

ВАЖНО

RePack

MK11

RePack

jed

RePack

fifa19

RePack

RDR2

RePack

NEED FOR SPEED™ PAYBACK

Кинопоиск HD

6 сезон

 Острые козырьки 6 сезон

Все сериалы

все сериалы на PB.wtf

RePack

FAR CRY 5

Anonymous, нам критически не хватает 5601 руб. на оплату серверов и переферии за Апрель, помоги нам пожалуйста, вся надежда только на тебя. В благодарность мы отключим тебе всю рекламу на сайте!

×
  
Magnet ссылка

Терминатор / The Terminator (Джеймс Кэмерон) [1984 г., Фантастика, боевик, триллер, BDRip 1080p, HEVC (10bit), Дубляж (Лицензия)] pb.wtf

Терминатор через торрент pb.wtf

Размер: 9.66 GB | Добавлен: 3 года 6 мес. назад | Торрент скачан:229 раз
Смотреть онлайн Терминатор | Скачать    Ребята, помогите собрать деньги на оплату серверов!!!

14-11-2018 04:49 Терминатор Скачать торрент  

Терминатор / The Terminator
Год выпуска: 1984
Страна: Великобритания, США
Жанр: Фантастика, боевик, триллер
Продолжительность: 01:47:25
Перевод: Дубляж (Лицензия)
Субтитры: Русские (форсированные, полные)

Режиссер: Джеймс Кэмерон

rating

В ролях: Арнольд Шварценеггер, Майкл Бьен, Линда Хэмилтон, Пол Уинфилд, Лэнс Хенриксен

Описание: История противостояния солдата Кайла Риза и киборга-терминатора, прибывших в 1984-й год из пост-апокалиптического будущего, где миром правят машины-убийцы, а человечество находится на грани вымирания. Цель киборга: убить девушку по имени Сара Коннор, чей ещё нерождённый сын к 2029 году выиграет войну человечества с машинами. Цель Риза: спасти Сару и остановить Терминатора любой ценой.
Доп. информация: -
H.265/HEVC (High Efficiency Video Coding) - это новый стандарт кодирования видео.
- Стандарт H.265/HEVC является логическим продолжением стандарта
H.264/AVC (Advanced Video Coding), и характеризуется более эффективными
алгоритмами сжатия, а также поддержкой высокого разрешения вплоть до 8K UHD
(8192x4320). Первая версия стандарта H.265 была опубликована в начале 2013 года.
- Рипы в фомате HEVC поддерживается не всеми аппаратными проигрывателями.
- Для корректного воспроизведения может потребоваться обновление ПО.
- Владельцам несовместимого железа просьба не беспокоить,
есть альтернативные релизы.
Качество: BDRip 1080p
Формат: MKV
Видео кодек: H.265
Аудио кодек: AC3
Видео: 1920x1040, ~11,8 Мbps
Аудио#1: AC3, 6 ch, 640 Kbps - Дублированный
Аудио#2: AC3, 6 ch, 448 Kbps - Английский


Общее
Уникальный идентификатор : 132502709667754911487570417869741231492 (0x63AF17F7E2457D63026AA12258120D84)
Полное имя : E:\Фильмы\Terminator\01.Терминатор (1984) [Remastered] BDRip 1080p [HEVC] 10 bit Rip_by_M@kSIMus.mkv
Формат : Matroska
Версия формата : Version 4
Размер файла : 9,66 Гбайт
Продолжительность : 1 ч. 47 м.
Общий поток : 12,9 Мбит/сек
Название фильма : Rip_by_M@kSIMus
Дата кодирования : UTC 2018-09-06 14:05:45
Программа кодирования : mkvmerge v19.0.0 ('Brave Captain') 64-bit
Библиотека кодирования : libebml v1.3.5 + libmatroska v1.4.8
Обложка : Yes
Attachments : cover.jpg

Видео
Идентификатор : 1
Формат : HEVC
Формат/Информация : High Efficiency Video Coding
Профиль формата : Main 10@L5.1@High
Идентификатор кодека : V_MPEGH/ISO/HEVC
Продолжительность : 1 ч. 47 м.
Битрейт : 11,8 Мбит/сек
Ширина : 1920 пикселей
Высота : 1040 пикселей
Соотношение сторон : 1,85:1
Режим частоты кадров : Постоянный
Частота кадров : 23,976 (24000/1001) кадра/сек
Цветовое пространство : YUV
Субдискретизация насыщенности : 4:2:0
Битовая глубина : 10 бит
Бит/(Пиксели*Кадры) : 0.246
Размер потока : 8,84 Гбайт (92%)
Библиотека кодирования : x265 2.8+19-bcdc610cf5f0:[Windows][GCC 7.3.0][64 bit] 10bit
Настройки программы : cpuid=1049583 / frame-threads=5 / numa-pools=4 / wpp / no-pmode / no-pme / no-psnr / no-ssim / log-level=3 / input-csp=1 / input-res=1920x1040 / interlace=0 / total-frames=0 / level-idc=51 / high-tier=1 / uhd-bd=0 / ref=5 / allow-non-conformance / no-repeat-headers / annexb / no-aud / no-hrd / info / hash=0 / no-temporal-layers / open-gop / min-keyint=24 / keyint=240 / gop-lookahead=0 / bframes=8 / b-adapt=2 / b-pyramid / bframe-bias=0 / rc-lookahead=40 / lookahead-slices=6 / scenecut=40 / radl=0 / no-intra-refresh / ctu=64 / min-cu-size=8 / no-rect / no-amp / max-tu-size=32 / tu-inter-depth=1 / tu-intra-depth=1 / limit-tu=0 / rdoq-level=0 / dynamic-rd=0.00 / no-ssim-rd / signhide / no-tskip / nr-intra=0 / nr-inter=0 / no-constrained-intra / strong-intra-smoothing / max-merge=2 / limit-refs=3 / no-limit-modes / me=3 / subme=7 / merange=57 / temporal-mvp / weightp / no-weightb / no-analyze-src-pics / deblock=-3:-3 / no-sao / no-sao-non-deblock / rd=3 / no-early-skip / rskip / no-fast-intra / no-tskip-fast / no-cu-lossless / no-b-intra / no-splitrd-skip / rdpenalty=0 / psy-rd=2.00 / psy-rdoq=0.00 / no-rd-refine / no-lossless / cbqpoffs=0 / crqpoffs=0 / rc=crf / crf=20.0 / qcomp=0.75 / qpstep=4 / stats-write=0 / stats-read=0 / vbv-maxrate=160000 / vbv-bufsize=160000 / vbv-init=0.9 / crf-max=0.0 / crf-min=0.0 / ipratio=1.40 / pbratio=1.30 / aq-mode=1 / aq-strength=1.00 / cutree / zone-count=0 / no-strict-cbr / qg-size=32 / no-rc-grain / qpmax=69 / qpmin=0 / no-const-vbv / sar=1 / overscan=0 / videoformat=5 / range=0 / colorprim=1 / transfer=1 / colormatrix=1 / chromaloc=0 / display-window=0 / max-cll=0,0 / min-luma=0 / max-luma=1023 / log2-max-poc-lsb=8 / vui-timing-info / vui-hrd-info / slices=1 / no-opt-qp-pps / no-opt-ref-list-length-pps / no-multi-pass-opt-rps / scenecut-bias=0.05 / no-opt-cu-delta-qp / no-aq-motion / no-hdr / no-hdr-opt / no-dhdr10-opt / no-idr-recovery-sei / analysis-reuse-level=5 / scale-factor=0 / refine-intra=0 / refine-inter=0 / refine-mv=0 / no-limit-sao / ctu-info=0 / no-lowpass-dct / refine-mv-type=0 / copy-pic=1 / max-ausize-factor=1.0 / no-dynamic-refine / no-single-sei
Язык : English
Default : Да
Forced : Нет
Цветовой диапазон : Limited
Основные цвета : BT.709
Характеристики трансфера : BT.709
Коэффициенты матрицы : BT.709

Аудио #1
Идентификатор : 2
Формат : AC-3
Формат/Информация : Audio Coding 3
Коммерческое название : Dolby Digital
Идентификатор кодека : A_AC3
Продолжительность : 1 ч. 47 м.
Вид битрейта : Постоянный
Битрейт : 640 Кбит/сек
Каналы : 6 каналов
Channel layout : L R C LFE Ls Rs
Частота : 48,0 КГц
Частота кадров : 31,250 кадров/сек (1536 SPF)
Битовая глубина : 16 бит
Метод сжатия : С потерями
Размер потока : 492 Мбайт (5%)
Заголовок : Дубляж
Язык : Russian
ServiceKind/String : Complete Main
Default : Да
Forced : Нет

Аудио #2
Идентификатор : 3
Формат : AC-3
Формат/Информация : Audio Coding 3
Коммерческое название : Dolby Digital
Идентификатор кодека : A_AC3
Продолжительность : 1 ч. 47 м.
Вид битрейта : Постоянный
Битрейт : 448 Кбит/сек
Каналы : 6 каналов
Channel layout : L R C LFE Ls Rs
Частота : 48,0 КГц
Частота кадров : 31,250 кадров/сек (1536 SPF)
Битовая глубина : 16 бит
Метод сжатия : С потерями
Размер потока : 344 Мбайт (3%)
Заголовок : Оригинал
Язык : English
ServiceKind/String : Complete Main
Default : Нет
Forced : Нет

Текст #1
Идентификатор : 4
Формат : UTF-8
Идентификатор кодека : S_TEXT/UTF8
Идентификатор кодека/Информация : UTF-8 Plain Text
Продолжительность : 1 ч. 43 м.
Битрейт : 0 бит/сек
ElementCount : 20
Размер потока : 723 байт (0%)
Заголовок : Forced
Язык : Russian
Default : Да
Forced : Нет

Текст #2
Идентификатор : 5
Формат : UTF-8
Идентификатор кодека : S_TEXT/UTF8
Идентификатор кодека/Информация : UTF-8 Plain Text
Продолжительность : 1 ч. 46 м.
Битрейт : 44 бит/сек
ElementCount : 594
Размер потока : 35,0 Кбайт (0%)
Заголовок : Full
Язык : Russian
Default : Нет
Forced : Нет

Меню
00:00:00.000 : :2029 a.D./Main Title
00:03:32.253 : :The Arrival
00:05:18.151 : :New Wardrobe
00:06:31.015 : :Second Visitor
00:11:38.322 : :Hard-Working Girl
00:13:45.324 : :Gun Men
00:15:11.827 : :"Sarah Connor?"
00:20:44.618 : :Phone Book Rampage
00:22:49.618 : :Last One Left
00:29:49.787 : :Uninvited Guest
00:33:15.034 : :The Last Day of Disco
00:38:47.116 : :Running Commentary
00:41:25.191 : :The Possible Future
00:47:46.488 : :"Drive!"
00:50:39.995 : :Safety in Uniforms
00:54:41.569 : :Self-Service
00:59:04.916 : :I'll Be Back!"
01:03:53.538 : :Mother of the Future
01:09:37.548 : :The War to Come
01:14:08.986 : :Answering Machine
01:15:00.078 : :Not Mom
01:17:18.800 : :Recipe for Disaster
01:18:30.372 : :Present for the Future
01:23:00.892 : :Hot Pursuit
01:26:24.721 : :Run Over By a Truck
01:30:22.583 : :Hunk O' Burning Steel
01:32:19.367 : :Factory Foolery
01:35:52.121 : :Head Without Heels
01:39:53.862 : :Survivor
01:40:18.721 : :Tapes for John
01:40:49.334 : :A Storm Is Coming
01:43:12.895 : :End Credits

pb.wtf



Скачать Терминатор через торрент https://b.radikal.ru/b03/1811/32/26d0b2a5ad72.jpg Скачать, смотреть онлайн Терминатор бесплантно в хорошем качестве Описание: История противостояния солдата Кайла Риза и киборга-терминатора, прибывших в 1984-й год из пост-апокалиптического будущего, где ... 10 10 11
Торрент: Зарегистрирован [2018-11-14 04:49] · скачан: 229 раз
Статус: √ проверено
Размер: 9.66 GB
Как cкачать? Как скачать Терминатор через торрент | UTorrent

% Раздел Тема Автор DL S | L
Фильмы с авторской озвучкой [ 1.46 GB ] Терминатор / The Terminator [1984 BDRip] 2x[AVO] killermax2013 Скачать
1 | 0
Фильмы [HD 720p, 1080p] (Хороший звук DUB, MVO) [ 6.25 GB ] Терминатор 3: Восстание машин / Terminator 3: Rise of the Machines [2003 BDRip 1080p HEVC ()] Мичман37 Скачать
1 | 0
Сборники и Сиквелы (48-60 fps) [ 18.7 GB ] Терминатор: Антология / The Terminator: Antology [1984-2015 BDRip-AVC 60fps MVO] от R.G. HD-Films Tiberiumsun69 Скачать
1 | 0
Фильмы (Blu-ray, BD-Remux, HDDVD) [ 24.34 GB ] Терминатор / The Terminator [1984 BD Remux ] sander86 Скачать
1 | 0
Зарубежные сериалы [ 19.12 GB ] Терминатор: Хроники Сары Коннор / Битва за будущее / Terminator: The Sarah Connor Chronicles / Сезон: 1-2 / Серии: 1-31 из 31 [2008-2009 BDRip] Dub [REN-TV] Serejechka Скачать
1 | 0
Комиксы [ 43 MB ] Зак Уидон - The Terminator 2029 / Терминатор 2029 [2010CBR] oldGAMERu Скачать
1 | 0
Фильмы до 2000 г. [ 1.45 GB ] Терминатор / The Terminator [1984 BDRip ] Бумер Скачать
1 | 0

28-11-2019 20:33  

Отключить всю рекламу на сайте

    Дорогой пользователь! Огромная просьба, поблагодарите релизера, оцените раздачу и оставьте свои комментарий, если Вы скачали Терминатор через торрент бесплатно!
    Комментировать посты могут только пользователи прошедшие не сложную регистрацию
    Показать сообщения:    

    Терминатор через торрент
    Скачать бесплатно Терминатор
    Терминатор скачать торрент
    Терминатор смотреть онлайн
    Cкачать фильм Терминатор бесплатно
    Терминатор скачать торрент в хорошем качестве
    Терминатор смотреть онлайн бесплатно в хорошем качестве


    Вы не можете начинать темы
    Вы не можете отвечать на сообщения
    Вы не можете редактировать свои сообщения
    Вы не можете удалять свои сообщения
    Вы не можете голосовать в опросах
    Вы не можете прикреплять файлы к сообщениям
    Вы можете скачивать файлы