2 сезон

iTunes

MVO

1

2 сезон

iTunes

iTunes

1 сезон

RePack

30

Ultimate

ВАЖНО

ИГРА 18+

pack

RePack

MK11
pack

Легкие деньги

RePack

jed

RePack

fifa19

RePack

RDR2

RePack

NEED FOR SPEED™ PAYBACK

4 сезон

9 сезон

Бесстыжие 9 сезон

Все сериалы

все сериалы на PB.wtf

RePack

FAR CRY 5

Anonymous, доброй ночи, мы не успеваем собрать деньги на оплату серверов за декабрь и январь, помогите нам пожалуйста в это трудное время. В качестве благодарности мы отключим Вам всю рекламу на сайте (укажите свой ник в строку Ваше имя)!

×
  
Magnet ссылка

Терминатор: Да придёт спаситель / Terminator Salvation (МакДжи) [2009 г., Фантастика, боевик, приключения, BDRip 1080p, HEVC (10bit), Дубляж (Лицензия)] [Director's Cut] pb.wtf

Терминатор: Да придёт спаситель через торрент pb.wtf

Размер: 6.42 GB | Добавлен: 2 года 2 мес. назад | Торрент скачан:188 раз
Скачать  

14-11-2018 05:16 Терминатор: Да придёт спаситель Скачать торрент  

Терминатор: Да придёт спаситель / Terminator Salvation
Год выпуска: 2009
Страна: США, Германия, Великобритания, Италия
Жанр: Фантастика, боевик, приключения
Продолжительность: 01:57:31
Перевод: Дубляж (Лицензия)
Субтитры: Русские (форсированные на не переведённые места, полные)

Режиссер: МакДжи

rating

В ролях: Кристиан Бэйл, Сэм Уортингтон, Антон Ельчин, Мун Бладгуд

Описание: 2018 год. В мире наступила война с машинами. Джон Коннор — человек, чья судьба — возглавить Сопротивление электронному мозгу Скайнет и армии Терминаторов. Но в будущее, с верой в которое он возвращен, вклинивается таинственный Маркус Райт: незнакомец, чьи последние воспоминания рисуют камеру смертников.
Доп. информация: -
H.265/HEVC (High Efficiency Video Coding) - это новый стандарт кодирования видео.
- Стандарт H.265/HEVC является логическим продолжением стандарта
H.264/AVC (Advanced Video Coding), и характеризуется более эффективными
алгоритмами сжатия, а также поддержкой высокого разрешения вплоть до 8K UHD
(8192x4320). Первая версия стандарта H.265 была опубликована в начале 2013 года.
- Рипы в фомате HEVC поддерживается не всеми аппаратными проигрывателями.
- Для корректного воспроизведения может потребоваться обновление ПО.
- Владельцам несовместимого железа просьба не беспокоить,
есть альтернативные релизы.
Качество: BDRip 1080p
Формат: MKV
Видео кодек: H.265
Аудио кодек: AC3
Видео: 1920x800, ~6735 Kbps
Аудио#1: AC3, 6 ch, 640 Kbps - Дублированный
Аудио#2: AC3, 6 ch, 448 Kbps - Английский


Общее
Уникальный идентификатор : 103481498281080771255636787459834481854 (0x4DD9CFC685B17907CCBF56BAD5578CBE)
Полное имя : F:\РАЗДАЧИ\04. Терминатор - Да придёт спаситель Terminator Salvation (2009) [Director's Cut] BDRip 1080p [HEVC] 10 bit Rip_by_M@kSIMus.mkv
Формат : Matroska
Версия формата : Version 4 / Version 2
Размер файла : 6,42 Гбайт
Продолжительность : 1 ч. 57 м.
Общий поток : 7825 Кбит/сек
Название фильма : Rip_by_M@kSIMus
Дата кодирования : UTC 2018-09-15 23:43:20
Программа кодирования : mkvmerge v19.0.0 ('Brave Captain') 64-bit
Библиотека кодирования : libebml v1.3.5 + libmatroska v1.4.8
Обложка : Yes
Attachments : cover.jpg

Видео
Идентификатор : 1
Формат : HEVC
Формат/Информация : High Efficiency Video Coding
Профиль формата : Main 10@L5.1@High
Идентификатор кодека : V_MPEGH/ISO/HEVC
Продолжительность : 1 ч. 57 м.
Битрейт : 6735 Кбит/сек
Ширина : 1920 пикселей
Высота : 800 пикселей
Соотношение сторон : 2,40:1
Режим частоты кадров : Постоянный
Частота кадров : 23,976 (24000/1001) кадра/сек
Цветовое пространство : YUV
Субдискретизация насыщенности : 4:2:0
Битовая глубина : 10 бит
Бит/(Пиксели*Кадры) : 0.183
Размер потока : 5,53 Гбайт (86%)
Библиотека кодирования : x265 2.8+19-bcdc610cf5f0:[Windows][GCC 7.3.0][64 bit] 10bit
Настройки программы : cpuid=1049583 / frame-threads=5 / numa-pools=4 / wpp / no-pmode / no-pme / no-psnr / no-ssim / log-level=3 / input-csp=1 / input-res=1920x800 / interlace=0 / total-frames=0 / level-idc=51 / high-tier=1 / uhd-bd=0 / ref=5 / allow-non-conformance / no-repeat-headers / annexb / no-aud / no-hrd / info / hash=0 / no-temporal-layers / open-gop / min-keyint=24 / keyint=240 / gop-lookahead=0 / bframes=8 / b-adapt=2 / b-pyramid / bframe-bias=0 / rc-lookahead=40 / lookahead-slices=5 / scenecut=40 / radl=0 / no-intra-refresh / ctu=64 / min-cu-size=8 / no-rect / no-amp / max-tu-size=32 / tu-inter-depth=1 / tu-intra-depth=1 / limit-tu=0 / rdoq-level=0 / dynamic-rd=0.00 / no-ssim-rd / signhide / no-tskip / nr-intra=0 / nr-inter=0 / no-constrained-intra / strong-intra-smoothing / max-merge=2 / limit-refs=3 / no-limit-modes / me=3 / subme=7 / merange=57 / temporal-mvp / weightp / no-weightb / no-analyze-src-pics / deblock=-3:-3 / no-sao / no-sao-non-deblock / rd=3 / no-early-skip / rskip / no-fast-intra / no-tskip-fast / no-cu-lossless / no-b-intra / no-splitrd-skip / rdpenalty=0 / psy-rd=2.00 / psy-rdoq=0.00 / no-rd-refine / no-lossless / cbqpoffs=0 / crqpoffs=0 / rc=crf / crf=20.0 / qcomp=0.75 / qpstep=4 / stats-write=0 / stats-read=0 / vbv-maxrate=160000 / vbv-bufsize=160000 / vbv-init=0.9 / crf-max=0.0 / crf-min=0.0 / ipratio=1.40 / pbratio=1.30 / aq-mode=1 / aq-strength=1.00 / cutree / zone-count=0 / no-strict-cbr / qg-size=32 / no-rc-grain / qpmax=69 / qpmin=0 / no-const-vbv / sar=1 / overscan=0 / videoformat=5 / range=0 / colorprim=1 / transfer=1 / colormatrix=1 / chromaloc=0 / display-window=0 / max-cll=0,0 / min-luma=0 / max-luma=1023 / log2-max-poc-lsb=8 / vui-timing-info / vui-hrd-info / slices=1 / no-opt-qp-pps / no-opt-ref-list-length-pps / no-multi-pass-opt-rps / scenecut-bias=0.05 / no-opt-cu-delta-qp / no-aq-motion / no-hdr / no-hdr-opt / no-dhdr10-opt / no-idr-recovery-sei / analysis-reuse-level=5 / scale-factor=0 / refine-intra=0 / refine-inter=0 / refine-mv=0 / no-limit-sao / ctu-info=0 / no-lowpass-dct / refine-mv-type=0 / copy-pic=1 / max-ausize-factor=1.0 / no-dynamic-refine / no-single-sei
Язык : English
Default : Да
Forced : Нет
Цветовой диапазон : Limited
Основные цвета : BT.709
Характеристики трансфера : BT.709
Коэффициенты матрицы : BT.709

Аудио #1
Идентификатор : 2
Формат : AC-3
Формат/Информация : Audio Coding 3
Идентификатор кодека : A_AC3
Продолжительность : 1 ч. 57 м.
Вид битрейта : Постоянный
Битрейт : 640 Кбит/сек
Каналы : 6 каналов
Расположение каналов : Front: L C R, Side: L R, LFE
Частота : 48,0 КГц
Частота кадров : 31,250 кадров/сек (1536 SPF)
Битовая глубина : 16 бит
Метод сжатия : С потерями
Размер потока : 538 Мбайт (8%)
Заголовок : Дубляж
Язык : Russian
ServiceKind/String : Complete Main
Default : Да
Forced : Нет

Аудио #2
Идентификатор : 3
Формат : AC-3
Формат/Информация : Audio Coding 3
Идентификатор кодека : A_AC3
Продолжительность : 1 ч. 57 м.
Вид битрейта : Постоянный
Битрейт : 448 Кбит/сек
Каналы : 6 каналов
Расположение каналов : Front: L C R, Side: L R, LFE
Частота : 48,0 КГц
Частота кадров : 31,250 кадров/сек (1536 SPF)
Битовая глубина : 16 бит
Метод сжатия : С потерями
Размер потока : 377 Мбайт (6%)
Заголовок : Оригинал
Язык : English
ServiceKind/String : Complete Main
Default : Нет
Forced : Нет

Текст #1
Идентификатор : 4
Формат : UTF-8
Идентификатор кодека : S_TEXT/UTF8
Идентификатор кодека/Информация : UTF-8 Plain Text
Продолжительность : 1 ч. 11 м.
Битрейт : 2 бит/сек
ElementCount : 18
Размер потока : 1,14 Кбайт (0%)
Заголовок : Forced
Язык : Russian
Default : Да
Forced : Нет

Текст #2
Идентификатор : 5
Формат : UTF-8
Идентификатор кодека : S_TEXT/UTF8
Идентификатор кодека/Информация : UTF-8 Plain Text
Продолжительность : 1 ч. 47 м.
Битрейт : 53 бит/сек
ElementCount : 801
Размер потока : 42,1 Кбайт (0%)
Заголовок : Full
Язык : Russian
Default : Нет
Forced : Нет

pb.wtf



Скачать Терминатор: Да придёт спаситель через торрент https://b.radikal.ru/b11/1811/2b/6f6212f2d410.jpg Скачать фильм Терминатор: Да придёт спаситель через торрент бесплантно в хорошем качестве Описание: 2018 год. В мире наступила война с машинами. Джон Коннор — человек, чья судьба — возглавить Сопротивление электронному мозгу ... 10 10 9
Торрент: Зарегистрирован [2018-11-14 05:16] · скачан: 188 раз
Статус: √ проверено
Размер: 6.42 GB
Как cкачать? Как скачать Терминатор: Да придёт спаситель через торрент | UTorrent

% Раздел Тема Автор DL S | L
Ultra HD (UHD: 2K, 4K, 8K) — видео сверхвысокой чёткости [ 27.89 GB ] Терминатор: Да придёт спаситель / Terminator Salvation [2009 UHD BDRip 2160p] [SDR] DUB [] bober100 Скачать
1 | 0
Ultra HD (UHD: 2K, 4K, 8K) — видео сверхвысокой чёткости [ 15.34 GB ] Терминатор: Да придёт спаситель / Terminator Salvation [2009 UHD BDRip 2160p] DUB [] bober100 Скачать
1 | 0
Ultra HD (UHD: 2K, 4K, 8K) — видео сверхвысокой чёткости [ 41.13 GB ] Терминатор: Да придёт спаситель / Terminator Salvation [2009 UHD BDRemux 2160p] DUB [] bober100 Скачать
2 | 0
Фильмы без перевода [ 53.12 GB ] Терминатор: Да придёт спаситель / Terminator Salvation [2009 UHD Blu-ray EUR 2160p] RUS SUB sheker187 Скачать
1 | 0
Фильмы 2009 [ 1.46 GB ] Терминатор: Да придёт спаситель / Terminator Salvation [2009 ... HDRip] Venxxx Скачать
1 | 0
Фильмы с авторской озвучкой [ 1.9 GB ] Терминатор: Да придёт спаситель / Terminator Salvation [2009 SATRip] [Театральная версия ] 4x[AVO] killermax2013 Скачать
1 | 0
Фильмы [HD 720p, 1080p] (Хороший звук DUB, MVO) [ 5.84 GB ] Терминатор: Да придёт спаситель / Terminator Salvation [2009 BDRip DUB ] VintMosina Скачать
1 | 0


Последний раз редактировалось: Мичман37 (2018-11-14 19:47), всего редактировалось 1 раз

28-11-2019 20:33  

Отключить всю рекламу на сайте

14-11-2018 06:06 Терминатор: Да придёт спаситель Скачать торрент  

У этой трешовой части оценка слишком завышена.pb.wtf



    Дорогой пользователь! Огромная просьба, поблагодарите релизера, оцените раздачу и оставьте свои комментарий, если Вы скачали Терминатор: Да придёт спаситель через торрент бесплатно! Внесите свою лепту в развитие PiratBit!
    Комментировать посты могут только пользователи прошедшие не сложную регистрацию
    Показать сообщения:    

    Терминатор: Да придёт спаситель через торрент
    Скачать бесплатно Терминатор: Да придёт спаситель
    Терминатор: Да придёт спаситель скачать торрент
    Терминатор: Да придёт спаситель смотреть онлайн
    Cкачать фильм Терминатор: Да придёт спаситель бесплатно
    Терминатор: Да придёт спаситель скачать торрент в хорошем качестве
    Терминатор: Да придёт спаситель смотреть онлайн бесплатно в хорошем качестве


    Вы не можете начинать темы
    Вы не можете отвечать на сообщения
    Вы не можете редактировать свои сообщения
    Вы не можете удалять свои сообщения
    Вы не можете голосовать в опросах
    Вы не можете прикреплять файлы к сообщениям
    Вы можете скачивать файлы