Ссылка на приватное зеркало нашего сайта всего за 1$. Внимание количество ограничено!!!

2 сезон

iTunes

1 сезон

1

2 сезон

2 сезон

iTunes

1 сезон

RePack

30

Ultimate

ВАЖНО

ИГРА 18+

pack

RePack

MK11
pack

Забери бонус

RePack

jed

!!Акция!!

Alien_Rage

RePack

fifa19

RePack

Assassins Creed: Odyssey

RePack

NEED FOR SPEED™ PAYBACK

4 сезон

9 сезон

Бесстыжие 9 сезон

Все сериалы

все сериалы на PB.wtf

RePack

FAR CRY 5
  

Чужой: Завет / Alien: Covenant (Ридли Скотт) [2017 г., Ужасы, фантастика, триллер, BDRip 1080p, HEVC (10bit), Дубляж (Лицензия)] pb.wtf

Чужой: Завет через торрент pb.wtf

Размер: 9.19 GB | Добавлен: 2 года назад | Торрент скачан:285 раз
Скачать  

14-11-2018 08:22 Чужой: Завет Скачать торрент  

Чужой: Завет / Alien: Covenant
Год выпуска: 2017
Страна: США, Великобритания
Жанр: Ужасы, фантастика, триллер
Продолжительность: 02:02:03
Перевод: Дубляж (Лицензия)
Субтитры: Русские (форсированные, полные), английские

Режиссер: Ридли Скотт

rating

В ролях: Майкл Фассбендер, Кэтрин Уотерстон, Билли Крудап, Дэнни МакБрайд, Демиан Бишир

Описание: Во время обследования удаленной планеты, расположенной на другой стороне галактики, экипаж колониального корабля «Завет» обнаруживает, что то, что они изначально приняли за неизведанный рай, на самом деле — тёмный и опасный мир. Его единственный житель — синтетический андроид Дэвид, оставшийся в живых после обреченной экспедиционной миссии «Прометей».
Доп. информация: -
H.265/HEVC (High Efficiency Video Coding) - это новый стандарт кодирования видео.
- Стандарт H.265/HEVC является логическим продолжением стандарта
H.264/AVC (Advanced Video Coding), и характеризуется более эффективными
алгоритмами сжатия, а также поддержкой высокого разрешения вплоть до 8K UHD
(8192x4320). Первая версия стандарта H.265 была опубликована в начале 2013 года.
- Рипы в фомате HEVC поддерживается не всеми аппаратными проигрывателями.
- Для корректного воспроизведения может потребоваться обновление ПО.
- Владельцам несовместимого железа просьба не беспокоить,
есть альтернативные релизы.
Качество: BDRip 1080p
Формат: MKV
Видео кодек: H.265
Аудио кодек: DTS
Видео: 1920x800, ~9365 Kbps
Аудио#1: DTS, 6 ch, 768 Kbps - Дублированный
Аудио#2: AC3, 6 ch, 640 Kbps - Английский
Релиз от: Mr. Fox

Общее
Уникальный идентификатор : 338930030171627929067622290769894104422 (0xFEFB8CA6863F5788E1106FD1FB56DD66)
Полное имя : F:\РАЗДАЧИ\Чужой. Завет. 2017. HEVC. 10bit..mkv
Формат : Matroska
Версия формата : Version 4 / Version 2
Размер файла : 9,19 Гбайт
Продолжительность : 2 ч. 2 м.
Общий поток : 10,8 Мбит/сек
Дата кодирования : UTC 2018-11-11 08:32:36
Программа кодирования : mkvmerge v28.2.0 ('The Awakening') 64-bit
Библиотека кодирования : libebml v1.3.6 + libmatroska v1.4.9
Обложка : Yes
Attachments : cover.jpg

Видео
Идентификатор : 1
Формат : HEVC
Формат/Информация : High Efficiency Video Coding
Профиль формата : Main 10@L4.1@High
Идентификатор кодека : V_MPEGH/ISO/HEVC
Продолжительность : 2 ч. 2 м.
Битрейт : 9365 Кбит/сек
Ширина : 1920 пикселей
Высота : 800 пикселей
Соотношение сторон : 2,40:1
Режим частоты кадров : Постоянный
Частота кадров : 23,976 (24000/1001) кадра/сек
Цветовое пространство : YUV
Субдискретизация насыщенности : 4:2:0
Битовая глубина : 10 бит
Бит/(Пиксели*Кадры) : 0.254
Размер потока : 7,98 Гбайт (87%)
Библиотека кодирования : x265 2.8+74-fd517ae68f93:[Windows][GCC 7.3.0][64 bit] 10bit
Настройки программы : cpuid=1111039 / frame-threads=13 / numa-pools=12 / wpp / no-pmode / no-pme / no-psnr / no-ssim / log-level=3 / input-csp=1 / input-res=1920x800 / interlace=0 / total-frames=0 / level-idc=41 / high-tier=1 / uhd-bd=0 / ref=5 / allow-non-conformance / no-repeat-headers / annexb / no-aud / no-hrd / info / hash=0 / no-temporal-layers / open-gop / min-keyint=24 / keyint=240 / gop-lookahead=0 / bframes=16 / b-adapt=2 / b-pyramid / bframe-bias=0 / rc-lookahead=60 / lookahead-slices=4 / scenecut=40 / radl=0 / no-intra-refresh / ctu=32 / min-cu-size=8 / rect / amp / max-tu-size=32 / tu-inter-depth=4 / tu-intra-depth=4 / limit-tu=0 / rdoq-level=1 / dynamic-rd=0.00 / no-ssim-rd / signhide / no-tskip / nr-intra=0 / nr-inter=0 / no-constrained-intra / no-strong-intra-smoothing / max-merge=4 / limit-refs=1 / limit-modes / me=3 / subme=7 / merange=57 / temporal-mvp / weightp / weightb / no-analyze-src-pics / deblock=-3:-3 / no-sao / no-sao-non-deblock / rd=6 / no-early-skip / rskip / no-fast-intra / no-tskip-fast / no-cu-lossless / no-b-intra / no-splitrd-skip / rdpenalty=0 / psy-rd=1.20 / psy-rdoq=1.00 / no-rd-refine / no-lossless / cbqpoffs=0 / crqpoffs=0 / rc=crf / crf=19.0 / qcomp=0.60 / qpstep=1 / stats-write=0 / stats-read=0 / vbv-maxrate=50000 / vbv-bufsize=50000 / vbv-init=0.9 / crf-max=30.0 / crf-min=0.0 / ipratio=1.40 / pbratio=1.30 / aq-mode=1 / aq-strength=0.90 / no-cutree / zone-count=0 / no-strict-cbr / qg-size=32 / no-rc-grain / qpmax=69 / qpmin=0 / no-const-vbv / sar=1 / overscan=0 / videoformat=5 / range=0 / colorprim=2 / transfer=2 / colormatrix=2 / chromaloc=0 / display-window=0 / max-cll=0,0 / min-luma=0 / max-luma=1023 / log2-max-poc-lsb=8 / vui-timing-info / vui-hrd-info / slices=1 / no-opt-qp-pps / no-opt-ref-list-length-pps / no-multi-pass-opt-rps / scenecut-bias=0.05 / no-opt-cu-delta-qp / no-aq-motion / no-hdr / no-hdr-opt / no-dhdr10-opt / no-idr-recovery-sei / analysis-reuse-level=5 / scale-factor=0 / refine-intra=0 / refine-inter=0 / refine-mv=0 / no-limit-sao / ctu-info=0 / no-lowpass-dct / refine-mv-type=0 / copy-pic=1 / max-ausize-factor=1.0 / no-dynamic-refine / no-single-sei
Default : Да
Forced : Нет

Аудио #1
Идентификатор : 2
Формат : DTS
Формат/Информация : Digital Theater Systems
Идентификатор кодека : A_DTS
Продолжительность : 2 ч. 2 м.
Вид битрейта : Постоянный
Битрейт : 768 Кбит/сек
Каналы : 6 каналов
Расположение каналов : Front: L C R, Side: L R, LFE
Частота : 48,0 КГц
Частота кадров : 93,750 кадра/сек (512 SPF)
Битовая глубина : 24 бит
Метод сжатия : С потерями
Размер потока : 670 Мбайт (7%)
Заголовок : Dub
Язык : Russian
Default : Да
Forced : Нет

Аудио #2
Идентификатор : 3
Формат : AC-3
Формат/Информация : Audio Coding 3
Идентификатор кодека : A_AC3
Продолжительность : 2 ч. 2 м.
Вид битрейта : Постоянный
Битрейт : 640 Кбит/сек
Каналы : 6 каналов
Расположение каналов : Front: L C R, Side: L R, LFE
Частота : 48,0 КГц
Частота кадров : 31,250 кадров/сек (1536 SPF)
Битовая глубина : 16 бит
Метод сжатия : С потерями
Размер потока : 559 Мбайт (6%)
Язык : English
ServiceKind/String : Complete Main
Default : Нет
Forced : Нет

Текст #1
Идентификатор : 4
Формат : UTF-8
Идентификатор кодека : S_TEXT/UTF8
Идентификатор кодека/Информация : UTF-8 Plain Text
Продолжительность : 1 ч. 45 м.
Битрейт : 0 бит/сек
ElementCount : 8
Размер потока : 347 байт (0%)
Заголовок : Forced
Язык : Russian
Default : Да
Forced : Нет

Текст #2
Идентификатор : 5
Формат : UTF-8
Идентификатор кодека : S_TEXT/UTF8
Идентификатор кодека/Информация : UTF-8 Plain Text
Продолжительность : 2 ч. 0 м.
Битрейт : 67 бит/сек
ElementCount : 1331
Размер потока : 59,4 Кбайт (0%)
Заголовок : BD EUR
Язык : Russian
Default : Нет
Forced : Нет

Текст #3
Идентификатор : 6
Формат : UTF-8
Идентификатор кодека : S_TEXT/UTF8
Идентификатор кодека/Информация : UTF-8 Plain Text
Продолжительность : 1 ч. 54 м.
Битрейт : 44 бит/сек
ElementCount : 1451
Размер потока : 36,8 Кбайт (0%)
Заголовок : Full
Язык : English
Default : Нет
Forced : Нет

Меню
00:00:00.000 : en:00:00:00.000
00:04:47.662 : en:00:04:47.662
00:13:07.495 : en:00:13:07.495
00:18:11.924 : en:00:18:11.924
00:22:46.448 : en:00:22:46.448
00:27:51.169 : en:00:27:51.169
00:33:12.908 : en:00:33:12.908
00:37:18.736 : en:00:37:18.736
00:42:19.912 : en:00:42:19.912
00:47:43.694 : en:00:47:43.694
00:52:04.371 : en:00:52:04.371
00:55:56.270 : en:00:55:56.270
01:00:17.447 : en:01:00:17.447
01:06:20.643 : en:01:06:20.643
01:11:25.031 : en:01:11:25.031
01:16:35.883 : en:01:16:35.883
01:21:10.032 : en:01:21:10.032
01:28:18.793 : en:01:28:18.793
01:31:21.559 : en:01:31:21.559
01:34:52.437 : en:01:34:52.437
01:39:23.666 : en:01:39:23.666
01:43:35.876 : en:01:43:35.876
01:50:49.309 : en:01:50:49.309
01:55:27.754 : en:01:55:27.754

pb.wtf



Скачать Чужой: Завет через торрент https://a.radikal.ru/a13/1811/86/d13ecbc9e6bd.jpg Скачать фильм Чужой: Завет через торрент бесплантно в хорошем качестве Описание: Во время обследования удаленной планеты, расположенной на другой стороне галактики, экипаж колониального корабля «Завет» ... 10 10 10
Торрент: Зарегистрирован [2018-11-14 08:22] · скачан: 285 раз
Статус: √ проверено
Размер: 9.19 GB
Как cкачать? Как скачать Чужой: Завет через торрент | qTorrent

% Раздел Тема Автор DL S | L
Фильмы 2017 [DVDrip, WEB-DLRip, HDrip] (DUB, MVO) [ 5.01 GB ] Чужой: Завет / Alien: Covenant [2017 WEB-DLRip-AVC Dub MVO 5 x AVO][Open Matte] от ExKinoRay morfyi Скачать
2 | 0
Ultra HD (UHD: 2K, 4K, 8K) — видео сверхвысокой чёткости [ 20.22 GB ] Чужой: Завет / Alien: Covenant [2017 UHD BDRip 2160p] DUB sheker187 Скачать
1 | 0
Фильмы (Blu-ray, BD-Remux, HDDVD) [ 45.91 GB ] Чужой: Завет / Alien: Covenant [2017 BD Remux 1080p] DUB + MVO + 4xAVO sheker187 Скачать
1 | 0
Фильмы 2017 [DVDrip, WEB-DLRip, HDrip] (DUB, MVO) [ 2.16 GB ] Чужой: Завет / Alien: Covenant [2017 BDRip-AVC] DUB [] - ExKinoRay Enigma2010 Скачать
4 | 0
Ultra HD (UHD: 2K, 4K, 8K) — видео сверхвысокой чёткости [ 43.99 GB ] Чужой: Завет / Alien: Covenant [2017 UHD BDRemux 2160] DUB+AVO [] bober100 Скачать
2 | 0
Фильмы (HD 720p, 1080p) (48-60 fps) [ 4.5 GB ] Чужой: Завет / Alien: Covenant [2017 BDRip 720p 60 fps от еnvy / NNNB] DUB еnvy Скачать
16 | 0
Фильмы [HD 720p, 1080p] (Хороший звук DUB, MVO) [ 17.08 GB ] Чужой: Завет / Alien: Covenant [2017 BDRip 1080p] DUB+MVO+AVO+VO [] bober100 Скачать
1 | 0

28-11-2019 20:33  

Отключить всю рекламу на сайте

15-11-2018 15:16 Чужой: Завет Скачать торрент  

Что за подъё... в 9 гигов???pb.wtf



    Дорогой пользователь! Огромная просьба, поблагодарите релизера, оцените раздачу и оставьте свои комментарий, если Вы скачали Чужой: Завет через торрент бесплатно! Внесите свою лепту в развитие PiratBit!
    Комментировать посты могут только пользователи прошедшие не сложную регистрацию
    Показать сообщения:    

    Чужой: Завет через торрент
    Скачать бесплатно Чужой: Завет
    Чужой: Завет скачать торрент
    Чужой: Завет смотреть онлайн
    Cкачать фильм Чужой: Завет бесплатно
    Чужой: Завет скачать торрент в хорошем качестве
    Чужой: Завет смотреть онлайн бесплатно в хорошем качестве


    Вы не можете начинать темы
    Вы не можете отвечать на сообщения
    Вы не можете редактировать свои сообщения
    Вы не можете удалять свои сообщения
    Вы не можете голосовать в опросах
    Вы не можете прикреплять файлы к сообщениям
    Вы можете скачивать файлы