Ссылка на приватное зеркало нашего сайта всего за 1$. Внимание количество ограничено!!!

2 сезон

iTunes

1 сезон

1

2 сезон

2 сезон

iTunes

1 сезон

RePack

30

Ultimate

ВАЖНО

ИГРА 18+

pack

RePack

MK11
pack

Забери бонус

RePack

jed

!!Акция!!

Alien_Rage

RePack

fifa19

RePack

Assassins Creed: Odyssey

RePack

NEED FOR SPEED™ PAYBACK

4 сезон

9 сезон

Бесстыжие 9 сезон

Все сериалы

все сериалы на PB.wtf

RePack

FAR CRY 5
  

Германия 86 / Deutschland 86 / Сезон 1 / Серии 1-10 (10) (Флориан Коссен) [2018, детектив, криминал, драма, WEB-DLRip] [MVO] (AlexFilm) pb.wtf

Германия 86 через торрент pb.wtf

Размер: 5.61 GB | Добавлен: 1 год 11 мес. назад | Торрент скачан:24 раза
Скачать  

14-11-2018 13:21 Германия 86 Скачать торрент  


Германия 86 / Deutschland 86

Год выпуска: 2018
Страна: Германия
Жанр: боевик, триллер, драма, история
Продолжительность: 1х ~00:45:00
Озвучание: Профессиональное (многоголосое закадровое) (AlexFilm)
Субтитров: нет
Режиссеры: Флориан Коссен, Арни Фельдхузен

В ролях: Йонас Нэй, Мария Шрадер, Флоренс Касумба, Сильвестр Грот, Соня Герхардт, Лавиния Вильсон, Людвиг Трепте, Александр Байер, Фритци Хаберландт, Уве Пройсс
Описание: Сюжет сериала переносит зрителей в восемьдесят шестой год прошлого века. Эти времена для Германии были непростыми. ФРГ и ГДР до сих пор разделены стеной, по каждую сторону которой кипела своя жизнь. На глобальной арене кипели нешуточные страсти между Советским Союзом и странами НАТО. Холодная война набирала обороты и стремилась к своей кульминации. Шпионские игры и многочисленные операции по контрразведке стали важнейшей частью политики ФРГ и ГДР, которые успевали работать на несколько фронтов. Сюжет сосредоточен на жизни простого паренька Мартина, который не по своей воле оказался среди шпионов и вынужден работать на правительство.
Релиз:

Перевод: Константин Кривоногов
Роли озвучивали:
    • Татьяна Манетина
    • Екатерина Муравицкая
    • Константин Погодаев
    • Роман Сопко
    • Дмитрий Лунев
    • Михаил Федосеев

Сэмпл: http://sendfile.su/1455320

rating скриншот  
Качество: WEB-DLRip
Формат: AVI
Видео: 720x400, 25 fps, XviD ~1400 kbps avg, 0.190 bit/pixel
Аудио Rus: 48 kHz, MPEG Layer 3, 2 ch, ~128.00 kbps avg
Аудио Ger: 48 kHz, MPEG Layer 3, 2 ch, ~128.00 kbps avg
Субтитры: нет
Раздача -- NNM-Club, DriverV
скриншот  скриншот  скриншот  
General
Complete name : E:\Германия 86 (сезон 1) Deutschland 86 (2018) WEB-DLRip - AlexFilm\Deutschland.86.S01E01.WEB-DLRip.Rus.Ger.AlexFilm.avi
Format : AVI
Format/Info : Audio Video Interleave
File size : 572 MiB
Duration : 45 min 58 s
Overall bit rate : 1 740 kb/s
Movie name : Deutschland.86.s01e01.WEB-DLRip.Rus.Ger.AlexFilm / NNM-Club
Writing application : VirtualDubModRus 1.5.10.2 (build 2542/release)
Writing library : VirtualDubMod build 2542/release

Video
ID : 0
Format : MPEG-4 Visual
Format profile : Advanced Simple@L5
Format settings : BVOP2
Format settings, BVOP : 2
Format settings, QPel : No
Format settings, GMC : No warppoints
Format settings, Matrix : Default (H.263)
Codec ID : XVID
Codec ID/Hint : XviD
Duration : 45 min 58 s
Bit rate : 1 404 kb/s
Width : 720 pixels
Height : 400 pixels
Display aspect ratio : 16:9
Frame rate : 25.000 FPS
Color space : YUV
Chroma subsampling : 4:2:0
Bit depth : 8 bits
Scan type : Progressive
Compression mode : Lossy
Bits/(Pixel*Frame) : 0.195
Stream size : 462 MiB (81%)
Title : Rip by DriverV / NNM-Club
Writing library : XviD 67

Audio #1
ID : 1
Format : MPEG Audio
Format version : Version 1
Format profile : Layer 3
Format settings : Joint stereo / MS Stereo
Mode : Joint stereo
Mode extension : MS Stereo
Codec ID : 55
Codec ID/Hint : MP3
Duration : 45 min 58 s
Bit rate mode : Constant
Bit rate : 128 kb/s
Channel(s) : 2 channels
Sampling rate : 48.0 kHz
Compression mode : Lossy
Stream size : 42.1 MiB (7%)
Alignment : Aligned on interleaves

Audio #2
ID : 2
Format : MPEG Audio
Format version : Version 1
Format profile : Layer 3
Format settings : Joint stereo / MS Stereo
Mode : Joint stereo
Mode extension : MS Stereo
Codec ID : 55
Codec ID/Hint : MP3
Duration : 45 min 58 s
Bit rate mode : Constant
Bit rate : 128 kb/s
Channel(s) : 2 channels
Sampling rate : 48.0 kHz
Compression mode : Lossy
Stream size : 42.1 MiB (7%)
Alignment : Aligned on interleaves
Внимание! Раздача ведётся путём добавления новых серий; при каждом добавлении создаётся новый торрент. Чтобы начать докачку новой серии, пользователям необходимо сделать следующее:
(1) остановить скачивание,
(2) удалить старый торрент у себя из клиента (старые серии удалять не надо),
(3) скачать новый торрент и запустить его у себя в клиенте вместо старого, при этом указать клиенту путь в старую папку куда и должно происходить скачивание новых серий.
Ваш клиент при этом должен произвести хеширование (проверку) старой папки (если не производит сам - помогите ему сделать это), и будет докачивать только те серии которых у вас ещё нет. Старые серии при этом не удаляются, а продолжают раздаваться!
Eсли вы уже удалили старые серии, то предотвратить повторную закачку старых серий можно, отжав галочку в соответствующих местах при запуске нового торрента. По возможности, желательно не удалять старые серии как можно дольше чтобы релизёр не столько продолжал раздавать старые серии, а смог сконцентрироваться на новых.
pb.wtf



Скачать Германия 86 через торрент http://i106.fastpic.ru/big/2018/1114/06/a3d03b432efb1480e9011dacc2e65d06.jpg Скачать фильм Германия 86 через торрент бесплантно в хорошем качестве Описание: Сюжет сериала переносит зрителей в восемьдесят шестой год прошлого века. Эти времена для Германии были непростыми. ФРГ и ГДР до ... 5.8 10 4
Торрент: Зарегистрирован [2018-11-30 20:37] · скачан: 24 раз
Статус: √ проверено
Размер: 5.61 GB
Как cкачать? Как скачать Германия 86 через торрент | qTorrent

% Раздел Тема Автор DL S | L
Зарубежные сериалы [ 9.01 GB ] Германия 86 / Deutschland 86 / Сезон 1 / Серии 1-10 [2018 WEB-DL 720p] [MVO] killermax2013 Скачать
1 | 0

28-11-2019 20:33  

Отключить всю рекламу на сайте

    Дорогой пользователь! Огромная просьба, поблагодарите релизера, оцените раздачу и оставьте свои комментарий, если Вы скачали Германия 86 через торрент бесплатно! Внесите свою лепту в развитие PiratBit!
    Комментировать посты могут только пользователи прошедшие не сложную регистрацию
    Показать сообщения:    

    Германия 86 через торрент
    Скачать бесплатно Германия 86
    Германия 86 скачать торрент
    Германия 86 смотреть онлайн
    Cкачать фильм Германия 86 бесплатно
    Германия 86 скачать торрент в хорошем качестве
    Германия 86 смотреть онлайн бесплатно в хорошем качестве


    Вы не можете начинать темы
    Вы не можете отвечать на сообщения
    Вы не можете редактировать свои сообщения
    Вы не можете удалять свои сообщения
    Вы не можете голосовать в опросах
    Вы не можете прикреплять файлы к сообщениям
    Вы можете скачивать файлы