Ссылка на приватное зеркало нашего сайта всего за 1$. Внимание количество ограничено!!!

2 сезон

iTunes

1 сезон

1

2 сезон

2 сезон

iTunes

1 сезон

RePack

30

Новинка

ВАЖНО

ИГРА 18+

pack

RePack

MK11
pack

Забери бонус

RePack

jed

!!Акция!!

Alien_Rage

RePack

fifa19

RePack

Assassins Creed: Odyssey

RePack

NEED FOR SPEED™ PAYBACK

4 сезон

9 сезон

Бесстыжие 9 сезон

Все сериалы

все сериалы на PB.wtf

RePack

FAR CRY 5
  

Бог меня зафрендил / God Friended Me / Сезон: 1 / Серии: 1-20 из 20 (Маркос Сига) [2018, Драма, комедия, WEB-DL 720p] [MVO] (Jaskier) pb.wtf

Бог меня зафрендил через торрент pb.wtf

Размер: 23.81 GB | Добавлен: 1 год 3 мес. назад | Торрент скачан:6 раз
Скачать  

14-11-2018 16:24 Бог меня зафрендил Скачать торрент  

Бог меня зафрендил / God Friended Me

Год выпуска: 2018
Страна: США
Жанр: Драма, комедия
Продолжительность: ~ 00:44:00
Перевод: Профессиональный (многоголосый закадровый) | Jaskier

Режиссёр: Маркос Сига

В ролях: Вайолетт Бин, Брэндон Майкл Холл, Джо Мортон, Сурадж Шарма, Франческа Баэр, Флор де Лис Перес, Шази Раджа, Кристофер Редман

Описание: Майлз Файнер - откровенный атеист, жизнь которого перевернута вверх дном, когда в социальной сети он получает запрос на добавление в друзья от Бога и невольно становится агентом изменения в судьбах людей вокруг. После нескольких подталкиваний от Бога любопытство Майлза берет верх, он принимает запрос, и знаки приводят его к журналистке интернет издания Каре Блум. Объединенные "аккаунтом Бога" они изучают предложения друзей от Бога и непреднамеренно помогают тем, кто в нужде. Майлз решительно настроен добраться до сути того, что по его мнению тщательно продуманный обман, но тем временем он будет подыгрывать и в процессе изменит свою жизнь навсегда.

rating

Качество: WEB-DL 720p
Формат: MKV
Видео: X264, ~ 3250 kbps, 1280x720 (16:9), 24 fps
Аудио 1: AC3, 48,0 КГц, 6 ch, 384 kbps - Rus
Аудио 2: AC3, 48,0 КГц, 6 ch, 384 kbps - Eng
Субтитры: отсутствуют
Общее
Общее
Уникальный идентификатор : 194238104740552987962048299842512573411 (0x9220E5F2250DC4ECB6D986778C5353E3)
Полное имя : V:\1ONGOING\God Friended Me. Season 1 (WEB-DL l 720p l JASKiER)\God Friended Me.s01e01.720p. JASKiER.mkv
Формат : Matroska
Версия формата : Version 2
Размер файла : 1,25 Гбайт
Продолжительность : 43 м.
Общий поток : 4110 Кбит/сек
Дата кодирования : UTC 2018-09-26 10:09:20
Программа кодирования : mkvmerge v7.8.0 ('River Man') 32bit built on Apr 3 2015 12:11:22
Библиотека кодирования : libebml v1.3.1 + libmatroska v1.4.2

Видео
Идентификатор : 1
Формат : AVC
Формат/Информация : Advanced Video Codec
Профиль формата : High@L3.1
Параметр CABAC формата : Да
Параметр ReFrames формата : 5 кадров
Идентификатор кодека : V_MPEG4/ISO/AVC
Продолжительность : 43 м.
Битрейт : 3260 Кбит/сек
Ширина : 1280 пикселей
Высота : 720 пикселей
Соотношение сторон : 16:9
Режим частоты кадров : Постоянный
Частота кадров : 24,000 кадра/сек
Цветовое пространство : YUV
Субдискретизация насыщенности : 4:2:0
Битовая глубина : 8 бит
Тип развёртки : Прогрессивная
Бит/(Пиксели*Кадры) : 0.147
Размер потока : 1017 Мбайт (79%)
Default : Да
Forced : Нет
Цветовой диапазон : Limited
Основные цвета : BT.709
Характеристики трансфера : BT.709
Коэффициенты матрицы : BT.709

Аудио #1
Идентификатор : 2
Формат : AC-3
Формат/Информация : Audio Coding 3
Расширение режима : CM (complete main)
Параметр Endianness формата : Big
Идентификатор кодека : A_AC3
Продолжительность : 43 м.
Вид битрейта : Постоянный
Битрейт : 384 Кбит/сек
Каналы : 6 каналов
Расположение каналов : Front: L C R, Side: L R, LFE
Частота : 48,0 КГц
Частота кадров : 31,250 кадров/сек (1536 spf)
Метод сжатия : С потерями
Размер потока : 120 Мбайт (9%)
Заголовок : Jaskier
Язык : Russian
Default : Да
Forced : Нет

Аудио #2
Идентификатор : 3
Формат : AC-3
Формат/Информация : Audio Coding 3
Расширение режима : CM (complete main)
Параметр Endianness формата : Big
Идентификатор кодека : A_AC3
Продолжительность : 43 м.
Вид битрейта : Постоянный
Битрейт : 384 Кбит/сек
Каналы : 6 каналов
Расположение каналов : Front: L C R, Side: L R, LFE
Частота : 48,0 КГц
Частота кадров : 31,250 кадров/сек (1536 spf)
Метод сжатия : С потерями
Размер потока : 120 Мбайт (9%)
Язык : English
Default : Нет
Forced : Нет
скриншот  скриншот  скриншот  
Когда раздача ведётся путём добавления новых серий, при каждом добавлении создётся новый торрент. Чтобы начать докачку новой серии, пользователям необходимо сделать следующее:
(1) остановить скачивание,
(2) удалить старый торрент у себя из клиента (старые серии удалять не надо),
(3) скачать новый торрент и запустить его у себя в клиенте вместо старого, при этом указать клиенту путь в старую папку, куда и должно происходить скачивание новых серий.
Ваш клиент при этом должен произвести хеширование (проверку) старой папки (если не производит сам - помогите ему сделать это), и будет докачивать только те серии, которых у вас ещё нет. Старые серии при этом не удаляются, а продолжают раздаваться!
Eсли вы уже удалили старые серии, то предотвратить повторную закачку старых серий можно, отжав галочку в соответсвующих местах при запуске нового торрента. По возможности, желательно не удалять старые серии как можно дольше, чтобы релизёр не столько продолжал раздавать старые серии, а смог сконцентрироваться на новых.
pb.wtf



Скачать Бог меня зафрендил через торрент http://i91.fastpic.ru/big/2018/0925/fa/a3d4554f79bd2f6d64cafd9676be15fa.png Скачать фильм Бог меня зафрендил через торрент бесплантно в хорошем качестве Описание: Майлз Файнер - откровенный атеист, жизнь которого перевернута вверх дном, когда в социальной сети он получает запрос на ... 9.8 10 4
Торрент: Зарегистрирован [2019-08-08 06:28] · скачан: 6 раз
Статус: √ проверено
Размер: 23.81 GB
Как cкачать? Как скачать Бог меня зафрендил через торрент | qTorrent

% Раздел Тема Автор DL S | L
Зарубежные сериалы [ 62.14 GB ] Бог меня зафрендил / God Friended Me / Сезон: 1 / Серии: 1-20 из 20 [2018 WEBRip 1080p] [MVO] killermax2013 Скачать
1 | 0
Зарубежные сериалы [ 60.84 GB ] Бог меня зафрендил / God Friended Me / Сезон: 2 / Серии: 1-22 из 22 [2019-2020 WEBRip 1080p] [MVO] killermax2013 Скачать
1 | 0
Зарубежные сериалы [ 3.16 GB ] Бог меня зафрендил / God Friended Me / Сезон: 2 / Серия: 1- из 14 [2019 WEB-DL 1080p] 2xMVO [TVShows HDRezka Studio] bober100 Скачать
1 | 0
Зарубежные сериалы [ 61.84 GB ] Бог меня зафрендил / God Friended Me / Сезон: 1 / Серии: 1-20 из 20 [2018 WEB-DL 1080p] MVO [TVShows] bober100 Скачать
1 | 0
Зарубежные сериалы [ 10.05 GB ] Бог меня зафрендил / God Friended Me / Сезон: 1 / Серии: 1-20 из 20 [2018 WEB-DLRip] [MVO] killermax2013 Скачать
1 | 0

28-11-2019 20:33  

Отключить всю рекламу на сайте

    Дорогой пользователь! Огромная просьба, поблагодарите релизера, оцените раздачу и оставьте свои комментарий, если Вы скачали Бог меня зафрендил через торрент бесплатно! Внесите свою лепту в развитие PiratBit!
    Комментировать посты могут только пользователи прошедшие не сложную регистрацию
    Показать сообщения:    

    Бог меня зафрендил через торрент
    Скачать бесплатно Бог меня зафрендил
    Бог меня зафрендил скачать торрент
    Бог меня зафрендил смотреть онлайн
    Cкачать фильм Бог меня зафрендил бесплатно
    Бог меня зафрендил скачать торрент в хорошем качестве
    Бог меня зафрендил смотреть онлайн бесплатно в хорошем качестве


    Вы не можете начинать темы
    Вы не можете отвечать на сообщения
    Вы не можете редактировать свои сообщения
    Вы не можете удалять свои сообщения
    Вы не можете голосовать в опросах
    Вы не можете прикреплять файлы к сообщениям
    Вы можете скачивать файлы