Ссылка на приватное зеркало всего за 1$. Внимание количество ограничено!!!


iTunes

1+1

iTunes

мы

WEB-DL

1

iTunes

Чернобыль

iTunes

Ральф против интернета

Лицензия

ПШазам

Лицензия

Оно 2

WEB-DL

30
pack

Вам бонус

ВАЖНО

!!Акция!!

Alien_RageХит недели

RePack

Resident Evil 21

ИГРА 18+

pack

RePack

jed

!!Акция!!

Alien_Rage

RePack

fifa19

RePack

Assassins Creed: Odyssey

RePack

NEED FOR SPEED™ PAYBACK

4 сезон

9 сезон

Бесстыжие 9 сезон

Все сериалы

все сериалы на PB.wtf

RePack

FAR CRY 5
Ребята, катастрофически не хватает 1900р. для оплаты серверов за Октябрь (всвязи с блокировками трафик упал в 3 раза), 1-2р., выручайте.
  

22 мили / Mile 22 (Питер Берг) [2018, боевик, триллер, BDRip-AVC] DUB [iTunes] pb.wtf

22 мили через торрент pb.wtf

Размер: 2.13 GB | Добавлен: 1 год 1 мес. назад | Торрент скачан:247 раз
Скачать  

14-11-2018 18:59 22 мили Скачать торрент  

22 мили / Mile 22
Год выпуска: 2018
Страна: США
Жанр: боевик, триллер
Продолжительность: 01:34:40
Перевод: Дублированный | iTunes
Субтитры: английские (Forced, Full, SDH)

Режиссер: Питер Берг

rating

В ролях:

Марк Уолберг, Лорен Кохэн, Ико Уайс, Джон Малкович, Ронда Раузи, Карло Альбан, Сиэль, Сэм Медина, Кит А. Болден

Описание:

Призраки - элитный отряд сверхсекретной разведки: официально они не существуют, но на самом деле - реальны. Они решают задачи, когда старые методы уже не работают, и всегда добиваются поставленной цели. Суперагенту отряда при поддержке ЦРУ предстоит непростая миссия: тайно вывести из Индонезии полицейского, владеющего доказательствами коррупции в высших политических кругах. До спасительного самолета им предстоит преодолеть 22 смертельно опасные мили.

Качество: BDRip-AVC
Формат: MKV
Видео: AVC, 1152x480 (2.40:1), 2395 kbps, 23,976 fps
Аудио №1: AC3 / 5.1 / 48 kHz / 384 kbps / 16 bit | RUS
Аудио №2: AC3 / 5.1 / 48 kHz / 448 kbps / 16 bit | ENG
Общее
Уникальный идентификатор : 174537937704488183348781191884032606236 (0x834EC8B8870CB873A80B1E42057E801C)
Полное имя : D:\Mile.22.2018.DUAL.BDRip.x264.-HELLYWOOD.mkv
Формат : Matroska
Версия формата : Version 4 / Version 2
Размер файла : 2,13 Гбайт
Продолжительность : 1 ч. 34 м.
Общий поток : 3222 Кбит/сек
Название фильма : Mile 22 (2018)
Дата кодирования : UTC 2018-11-14 12:55:06
Программа кодирования : mkvmerge v5.9.0 ('On The Loose') built on Dec 15 2012 16:39:58
Библиотека кодирования : libebml v1.3.0 + libmatroska v1.4.0

Видео
Идентификатор : 1
Формат : AVC
Формат/Информация : Advanced Video Codec
Профиль формата : High@L4.1
Настройки формата : CABAC / 11 Ref Frames
Параметр CABAC формата : Да
Параметр RefFrames формата : 11 кадров
Идентификатор кодека : V_MPEG4/ISO/AVC
Продолжительность : 1 ч. 34 м.
Битрейт : 2395 Кбит/сек
Ширина : 1152 пикселя
Высота : 480 пикселей
Соотношение сторон : 2,40:1
Режим частоты кадров : Постоянный
Частота кадров : 23,976 (24000/1001) кадра/сек
Цветовое пространство : YUV
Субдискретизация насыщенности : 4:2:0
Битовая глубина : 8 бит
Тип развёртки : Прогрессивная
Бит/(Пиксели*Кадры) : 0.181
Размер потока : 1,54 Гбайт (72%)
Библиотека кодирования : x264 core 157 r2901M 7d0ff22
Настройки программы : cabac=1 / ref=11 / deblock=1:-2:-2 / analyse=0x3:0x133 / me=umh / subme=11 / psy=1 / psy_rd=1.00:0.05 / mixed_ref=1 / me_range=48 / chroma_me=1 / trellis=2 / 8x8dct=1 / cqm=0 / deadzone=21,11 / fast_pskip=0 / chroma_qp_offset=-3 / threads=9 / lookahead_threads=2 / sliced_threads=0 / nr=0 / decimate=0 / interlaced=0 / bluray_compat=0 / constrained_intra=0 / bframes=12 / b_pyramid=2 / b_adapt=2 / b_bias=0 / direct=3 / weightb=1 / open_gop=0 / weightp=2 / keyint=240 / keyint_min=23 / scenecut=40 / intra_refresh=0 / rc_lookahead=100 / rc=2pass / mbtree=0 / bitrate=2395 / ratetol=1.0 / qcomp=0.70 / qpmin=0 / qpmax=69 / qpstep=4 / cplxblur=20.0 / qblur=0.5 / vbv_maxrate=50000 / vbv_bufsize=50000 / nal_hrd=none / filler=0 / ip_ratio=1.40 / pb_ratio=1.30 / aq=1:0.80
Язык : English
Default : Да
Forced : Нет
Цветовой диапазон : Limited
Основные цвета : BT.709
Характеристики трансфера : BT.709
Коэффициенты матрицы : BT.709

Аудио #1
Идентификатор : 2
Формат : AC-3
Формат/Информация : Audio Coding 3
Идентификатор кодека : A_AC3
Продолжительность : 1 ч. 34 м.
Вид битрейта : Постоянный
Битрейт : 384 Кбит/сек
Каналы : 6 каналов
Расположение каналов : Front: L C R, Side: L R, LFE
Частота : 48,0 КГц
Частота кадров : 31,250 кадров/сек (1536 SPF)
Битовая глубина : 16 бит
Метод сжатия : С потерями
Размер потока : 260 Мбайт (12%)
Заголовок : Dub | DD 5.1 @ 384 kbps - iTunes
Язык : Russian
ServiceKind/String : Complete Main
Default : Да
Forced : Нет

Аудио #2
Идентификатор : 3
Формат : AC-3
Формат/Информация : Audio Coding 3
Идентификатор кодека : A_AC3
Продолжительность : 1 ч. 34 м.
Вид битрейта : Постоянный
Битрейт : 448 Кбит/сек
Каналы : 6 каналов
Расположение каналов : Front: L C R, Side: L R, LFE
Частота : 48,0 КГц
Частота кадров : 31,250 кадров/сек (1536 SPF)
Битовая глубина : 16 бит
Метод сжатия : С потерями
Размер потока : 303 Мбайт (14%)
Заголовок : Original | DD 5.1 @ 448 kbps
Язык : English
ServiceKind/String : Complete Main
Default : Нет
Forced : Нет

Текст #1
Идентификатор : 4
Формат : UTF-8
Идентификатор кодека : S_TEXT/UTF8
Идентификатор кодека/Информация : UTF-8 Plain Text
Заголовок : Forced
Язык : English
Default : Нет
Forced : Нет

Текст #2
Идентификатор : 5
Формат : UTF-8
Идентификатор кодека : S_TEXT/UTF8
Идентификатор кодека/Информация : UTF-8 Plain Text
Заголовок : Full
Язык : English
Default : Нет
Forced : Нет

Текст #3
Идентификатор : 6
Формат : UTF-8
Идентификатор кодека : S_TEXT/UTF8
Идентификатор кодека/Информация : UTF-8 Plain Text
Заголовок : SDH
Язык : English
Default : Нет
Forced : Нет

Меню
00:00:00.000 : :00:00:00.000
00:12:06.225 : :00:12:06.225
00:24:27.925 : :00:24:27.925
00:36:23.139 : :00:36:23.139
00:48:42.211 : :00:48:42.211
01:04:11.264 : :01:04:11.264
01:17:49.665 : :01:17:49.665
01:27:14.604 : :01:27:14.604
скриншот   скриншот   скриншот   скриншот  
pb.wtf



Скачать 22 мили через торрент http://pic1.kartinco.top/images/11/sqwp4.jpg Скачать фильм 22 мили через торрент бесплантно в хорошем качестве Описание: Призраки - элитный отряд сверхсекретной разведки: официально они не существуют, но на самом деле - реальны. Они решают задачи, ... 10 10 8
Торрент: Зарегистрирован [2018-11-14 18:59] · скачан: 247 раз
Статус: √ проверено
Размер: 2.13 GB
Как cкачать? Как скачать 22 мили через торрент | qTorrent

% Раздел Тема Автор DL S | L
Фильмы (WEB-DL 720p, 1080p) [ 3.27 GB ] 22 мили / Mile 22 [2018 WEB-DL 1080p] bober100 Скачать
17 | 0
Фильмы [HD 720p, 1080p] (Хороший звук DUB, MVO) [ 9.08 GB ] 22 мили / Mile 22 [2018 BDRip 1080p] DUB [ BD RUS] + AVO [Михаил Яроцкий] sheker187 Скачать
1 | 0
Фильмы 2018 [DVDrip, WEB-DLRip, HDrip] (DUB, MVO) [ 1.46 GB ] 22 мили / Mile 22 [2018 BDRip] - [] Twi7ter Скачать
3 | 0
Фильмы [HD 720p, 1080p] (Хороший звук DUB, MVO) [ 5.48 GB ] 22 мили / Mile 22 [2018 BDRip 720p] DUB [] bober100 Скачать
4 | 0
Фильмы (Blu-ray, BD-Remux, HDDVD) [ 25 GB ] 22 мили / Mile 22 [2018 BD Remux 1080p] [CAN Transfer] DUB [] bober100 Скачать
1 | 0
Фильмы [HD 720p, 1080p] (Хороший звук DUB, MVO) [ 8.78 GB ] 22 мили / Mile 22 [2018 BDRip 1080p] DUB [] bober100 Скачать
2 | 0
Фильмы 2018 [DVDrip, WEB-DLRip, HDrip] (DUB, MVO) [ 1.57 GB ] 22 мили / Mile 22 [2018 BDRip-AVC] DUB [] bober100 Скачать
2 | 0

28-11-2019 20:33  

Отключить всю рекламу на сайте

    Дорогой пользователь! Огромная просьба, поблагодарите релизера, оцените раздачу и оставьте свои комментарий, если Вы скачали 22 мили через торрент бесплатно! Внесите свою лепту в развитие PiratBit!
    Комментировать посты могут только пользователи прошедшие не сложную регистрацию
    Показать сообщения:    

    22 мили через торрент
    Скачать бесплатно 22 мили
    22 мили скачать торрент
    22 мили смотреть онлайн
    Cкачать фильм 22 мили бесплатно
    22 мили скачать торрент в хорошем качестве
    22 мили смотреть онлайн бесплатно в хорошем качестве


    Вы не можете начинать темы
    Вы не можете отвечать на сообщения
    Вы не можете редактировать свои сообщения
    Вы не можете удалять свои сообщения
    Вы не можете голосовать в опросах
    Вы не можете прикреплять файлы к сообщениям
    Вы можете скачивать файлы