Ссылка на приватное зеркало нашего сайта всего за 1$. Внимание количество ограничено!!!

2 сезон

iTunes

1 сезон

1

2 сезон

2 сезон

iTunes

1 сезон

RePack

30

Ultimate

ВАЖНО

ИГРА 18+

pack

RePack

MK11
pack

Забери бонус

RePack

jed

!!Акция!!

Alien_Rage

RePack

fifa19

RePack

Assassins Creed: Odyssey

RePack

NEED FOR SPEED™ PAYBACK

4 сезон

9 сезон

Бесстыжие 9 сезон

Все сериалы

все сериалы на PB.wtf

RePack

FAR CRY 5
  

Возвращение домой / Homecoming / Сезон: 1 / Серии: 1-10 из 10 (Сэм Эсмейл) [2018, Триллер, драма, WEB-DL 720p] [DVO] (Кубик в Кубе) pb.wtf

Возвращение домой через торрент pb.wtf

Размер: 7.96 GB | Добавлен: 1 год 11 мес. назад | Торрент скачан:36 раз
Скачать  

15-11-2018 07:46 Возвращение домой Скачать торрент  

Возвращение домой / Homecoming

Год выпуска: 2018
Страна: США
Жанр: Триллер, драма
Продолжительность: ~ 00:30:00
Перевод: Профессиональный (двухголосый, закадровый) *Кубик в Кубе*
Режиссёр: Сэм Эсмейл
В ролях: Джулия Робертс, Бобби Каннавейл, Стэфан Джеймс, Шей Уигэм, Алекс Карповски, Айден Майэри, Маркус Хендерсон, Сисси Спейсек, Билл Стивенсон, Марианн Жан-Баптист
Описание: Солдат и социальный работник секретной правительственной службы пытаются вернуться к нормальной жизни в роли гражданских.

rating

Релиз --
Работа со звуком: messafan

Качество: WEB-DL 720p
Контейнер: MKV
Видео: 1280x720 at 23.976 fps, MPEG-4 AVC, ~2600 kbps avg
Аудио 1: AC3, 48.0 KHz, 6 ch, 640 kbps [Rus]
Аудио 2: AC3, 48.0 KHz, 6 ch, 640 kbps [Eng]
Субтитры: английские
General
Unique ID : 201249847406135707829622811269091093672 (0x97674F8CCE6AAEBABB59450321FCECA8)
Complete name : E:\Homecoming.S01.720p.WEBDL.CasStudio.TV\Homecoming.S01E01.Mandatory.720p.WEBDL.KvK.CasStudio.TV.mkv
Format : Matroska
Format version : Version 4 / Version 2
File size : 710 MiB
Duration : 26 min 52 s
Overall bit rate mode : Variable
Overall bit rate : 3 695 kb/s
Movie name : Homecoming 01x01 (Mandatory) - release by messafan for CasStudio.TV
Encoded date : UTC 2018-11-14 16:08:41
Writing application : mkvmerge v6.7.0 ('Back to the Ground') 64bit built on Jan 8 2014 15:10:52
Writing library : libebml v1.3.0 + libmatroska v1.4.1

Video
ID : 1
Format : AVC
Format/Info : Advanced Video Codec
Format profile : High@L3.1
Format settings : CABAC / 5 Ref Frames
Format settings, CABAC : Yes
Format settings, RefFrames : 5 frames
Codec ID : V_MPEG4/ISO/AVC
Duration : 26 min 52 s
Bit rate mode : Variable
Bit rate : 2 341 kb/s
Maximum bit rate : 4 500 kb/s
Width : 1 280 pixels
Height : 720 pixels
Display aspect ratio : 16:9
Frame rate mode : Constant
Frame rate : 23.976 (24000/1001) FPS
Color space : YUV
Chroma subsampling : 4:2:0
Bit depth : 8 bits
Scan type : Progressive
Bits/(Pixel*Frame) : 0.106
Stream size : 450 MiB (63%)
Default : Yes
Forced : No
Color range : Limited
Color primaries : BT.709
Transfer characteristics : BT.709
Matrix coefficients : BT.709

Audio #1
ID : 2
Format : AC-3
Format/Info : Audio Coding 3
Format settings, Endianness : Big
Codec ID : A_AC3
Duration : 26 min 52 s
Bit rate mode : Constant
Bit rate : 640 kb/s
Channel(s) : 6 channels
Channel positions : Front: L C R, Side: L R, LFE
Sampling rate : 48.0 kHz
Frame rate : 31.250 FPS (1536 SPF)
Bit depth : 16 bits
Compression mode : Lossy
Stream size : 123 MiB (17%)
Title : KvK DD5.1 @ 640kbps
Language : Russian
Service kind : Complete Main
Default : Yes
Forced : No

Audio #2
ID : 3
Format : AC-3
Format/Info : Audio Coding 3
Format settings, Endianness : Big
Codec ID : A_AC3
Duration : 26 min 52 s
Bit rate mode : Constant
Bit rate : 640 kb/s
Channel(s) : 6 channels
Channel positions : Front: L C R, Side: L R, LFE
Sampling rate : 48.0 kHz
Frame rate : 31.250 FPS (1536 SPF)
Bit depth : 16 bits
Compression mode : Lossy
Stream size : 123 MiB (17%)
Title : English DD5.1 @ 640kbps
Language : English
Service kind : Complete Main
Default : No
Forced : No

Text
ID : 4
Format : UTF-8
Codec ID : S_TEXT/UTF8
Codec ID/Info : UTF-8 Plain Text
Title : SDH
Language : English
Default : No
Forced : No
скриншот   скриншот   скриншот   скриншот  
pb.wtf



Скачать Возвращение домой через торрент https://i97.fastpic.ru/big/2018/1115/ea/ce0907c5a39ac14ab49036dab29858ea.jpg Скачать фильм Возвращение домой через торрент бесплантно в хорошем качестве Описание: Солдат и социальный работник секретной правительственной службы пытаются вернуться к нормальной жизни в роли гражданских.Релиз -- ... 4 10 3
Торрент: Зарегистрирован [2018-12-03 18:58] · скачан: 36 раз
Статус: √ проверено
Размер: 7.96 GB
Как cкачать? Как скачать Возвращение домой через торрент | qTorrent

% Раздел Тема Автор DL S | L
Зарубежные сериалы [ 23.03 GB ] Возвращение домой / Homecoming / Сезон: 2 / Серии: 1-7 из 7 [2020 WEBRip 1080p] MVO [Jaskier] bober100 Скачать
2 | 0
Зарубежные сериалы [ 23.41 GB ] Возвращение домой / Homecoming / Сезон: 2 / Серии: 1-7 из 7 [2020 WEBRip 1080p] MVO [LostFilm] bober100 Скачать
2 | 0
Зарубежные сериалы [ 23.8 GB ] Возвращение домой / Homecoming / Сезон: 2 / Серии: 1-7 из 7 [2020 WEBRip 1080p] MVO [NewStudio] bober100 Скачать
1 | 0
Зарубежные сериалы [ 7.96 GB ] Возвращение домой / Homecoming / Сезон: 1 / Серии: 1-10 из 10 [2018 WEBRip 720p] MVO [Good People] bober100 Скачать
1 | 0
Зарубежные сериалы [ 3.73 GB ] Возвращение домой / Homecoming / Сезон: 1 / Серии: 1-10 из 10 [2018 WEB-DLRip] MVO [NewStudio] bober100 Скачать
1 | 0
Зарубежные сериалы [ 21.77 GB ] Возвращение домой / Homecoming / Сезон: 1 / Серии: 1-10 из 10 [2018 WEBRip 1080p] [MVO] killermax2013 Скачать
1 | 0
Зарубежные сериалы [ 16.68 GB ] Возвращение домой / Homecoming / Сезон: 1 / Серии: 1-10 из 10 [2018 WEB-DL 1080p] [MVO] killermax2013 Скачать
1 | 0

28-11-2019 20:33  

Отключить всю рекламу на сайте

    Дорогой пользователь! Огромная просьба, поблагодарите релизера, оцените раздачу и оставьте свои комментарий, если Вы скачали Возвращение домой через торрент бесплатно! Внесите свою лепту в развитие PiratBit!
    Комментировать посты могут только пользователи прошедшие не сложную регистрацию
    Показать сообщения:    

    Возвращение домой через торрент
    Скачать бесплатно Возвращение домой
    Возвращение домой скачать торрент
    Возвращение домой смотреть онлайн
    Cкачать фильм Возвращение домой бесплатно
    Возвращение домой скачать торрент в хорошем качестве
    Возвращение домой смотреть онлайн бесплатно в хорошем качестве


    Вы не можете начинать темы
    Вы не можете отвечать на сообщения
    Вы не можете редактировать свои сообщения
    Вы не можете удалять свои сообщения
    Вы не можете голосовать в опросах
    Вы не можете прикреплять файлы к сообщениям
    Вы можете скачивать файлы