новый адрес
Ссылка на приватное зеркало всего за 1$. Внимание количество ограничено!!!

iTunes

1+1

iTunes

мы

WEB-DL

1

iTunes

Чернобыль

iTunes

Ральф против интернета

Лицензия

ПШазам

Лицензия

Оно 2

Лицензия

30
pack

Вам бонус

ВАЖНО

!!Акция!!

Alien_RageХит недели

RePack

Resident Evil 21

ИГРА 18+

pack

RePack

jed

!!Акция!!

Alien_Rage

RePack

fifa19

RePack

Assassins Creed: Odyssey

RePack

NEED FOR SPEED™ PAYBACK

3 сезон

9 сезон

Бесстыжие 9 сезон

Все сериалы

все сериалы на PB.wtf

RePack

FAR CRY 5
Ребята, катастрофически не хватает 1900р. для оплаты серверов за Октябрь (всвязи с блокировками трафик упал в 3 раза), 1-2р., выручайте.
  

На районе (Ольга Зуева) [2018, драма, WEB-DLRip] [iTunes] pb.wtf

На районе через торрент pb.wtf

Размер: 1.46 GB | Добавлен: 1 год назад | Торрент скачан:988 раз
Скачать  

15-11-2018 09:10 На районе Скачать торрент  

На районе

Год выпуска: 2018
Страна: Россия
Жанр: драма
Продолжительность: 01:31:26
Перевод: Не требуется [Русский] | iTunes
Режиссер: Ольга Зуева
В ролях:

Данила Козловский, Илья Маланин, Елена Оболенская, Ангелина Стречина, Ольга Зуева, Андрей Амшинский, Эдгар Гизатуллин, Александр Мизев (гость вечеринки), Владимир Хацкевич (Миша), Владимир Афанасьев (Шамиль)
Описание:
Вова и его лучший друг Киса зарабатывают деньги, занимаясь нелегальной деятельностью. Их жизнь проходит на волне веселья, в погоне за острыми ощущениями и кратковременными удовольствиями, пока очередной заказ не приводит их дружбу к главному испытанию, заставив каждого ответить на вопрос: кто ты?
Рейтинг:

Качество: WEB-DLRip
Формат: AVI
Видео: XviD, 720x304 (2.35:1), 1803 kbps, 25 fps, 0,330 bpp
Аудио: AC3 / 5.1 / 48 kHz / 384 kbps /
General
Complete name : D:\Na.rayone.2018.WEB-DLRip.1.46Gb.MegaPeer.avi
Format : AVI
Format/Info : Audio Video Interleave
File size : 1.46 GiB
Duration : 1 h 31 min
Overall bit rate : 2 287 kb/s
Writing application : VirtualDubMod 1.5.10.3 | www.virtualdub-fr.org || (build 2550/release)
Writing library : VirtualDubMod build 2550/release

Video
ID : 0
Format : MPEG-4 Visual
Format profile : Advanced Simple@L5
Format settings, BVOP : 1
Format settings, QPel : No
Format settings, GMC : No warppoints
Format settings, Matrix : Custom
Codec ID : XVID
Codec ID/Hint : XviD
Duration : 1 h 31 min
Bit rate : 1 803 kb/s
Width : 720 pixels
Height : 304 pixels
Display aspect ratio : 2.35:1
Frame rate : 25.000 FPS
Color space : YUV
Chroma subsampling : 4:2:0
Bit depth : 8 bits
Scan type : Progressive
Compression mode : Lossy
Bits/(Pixel*Frame) : 0.330
Stream size : 1.15 GiB (79%)
Writing library : XviD 73

Audio
ID : 1
Format : AC-3
Format/Info : Audio Coding 3
Mode extension : CM (complete main)
Format settings, Endianness : Big
Codec ID : 2000
Duration : 1 h 31 min
Bit rate mode : Constant
Bit rate : 384 kb/s
Channel(s) : 6 channels
Channel positions : Front: L C R, Side: L R, LFE
Sampling rate : 48.0 kHz
Frame rate : 31.250 FPS (1536 spf)
Compression mode : Lossy
Stream size : 251 MiB (17%)
Alignment : Split accross interleaves
скриншот   скриншот   скриншот  
pb.wtf



Скачать На районе через торрент http://pic1.kartinco.top/images/11/pafhe.jpg Скачать фильм На районе через торрент бесплантно в хорошем качестве Описание: Вова и его лучший друг Киса зарабатывают деньги, занимаясь нелегальной деятельностью. Их жизнь проходит на волне веселья, в ... 9.6 10 22
Info! Золотая раздача, скачанное не засчитывается.
Торрент: Зарегистрирован [2018-11-15 09:10] · скачан: 988 раз
Статус: √ проверено
Размер: 1.46 GB
Как cкачать? Как скачать На районе через торрент | qTorrent

% Раздел Тема Автор DL S | L
T Фильмы (мультфильмы) cо спонсором показа (Новинки AVI/MKV) [ 3.27 GB ] Свалить с района / Step Off the Block [2017 WEB-DL 720p] MVO ["Синема УС"] bober100 Скачать
1 | 0
T Фильмы (мультфильмы) cо спонсором показа (Новинки AVI/MKV) [ 1.37 GB ] Свалить с района / Step Off the Block [2017 WEB-DLRip] MVO ["Синема УС"] bober100 Скачать
1 | 0
Наши сериалы [ 50.28 GB ] Чужой район / Сезон: 1-3 / Серии: 1-88 из 88 [2011-2014 WEBRip-AVC] bober100 Скачать
2 | 0
Наши фильмы (HD, WEB-DL 720p, 1080p) [ 3.15 GB ] На районе [2018 WEB-DL 1080p] -Lexx- Скачать
4 | 0
Наши новые фильмы 2018-2019 [ 1.44 GB ] На районе [2018 WEB-DLRip-AVC] bober100 Скачать
4 | 0
Наши новые фильмы 2018-2019 [ 745 MB ] На районе [2018 WEB-DLRip] bober100 Скачать
2 | 0
Зарубежные сериалы [ 3.42 GB ] На районе / On My Block / Сезон: 1 / Серии: 1-10 из 10 [2018 WEB-DLRip] MVO [NewStudio] bober100 Скачать
1 | 0

28-11-2019 20:33  

Отключить всю рекламу на сайте

15-11-2018 09:30 На районе Скачать торрент  

дамочка-режиссер, она же сценарист, решила показать стране криминальный Владик. нелегкую жизнь гопников. офигеть. че-то мне подсказывает, что все скатится в сопли еще в середине фильма и обязательно будет вертеться вокруг любовь-марковь-честь девицы-героического превращения хулигана в талантливого ученого. ну чего-то вроде этого или еще бредовее. она ж женщина, знает чем живут мужчины, пускай даже гопникиpb.wtf



15-11-2018 15:32 На районе Скачать торрент  

Данила играет гопника? Вот это поворот. Надо глянуть.pb.wtf



    Дорогой пользователь! Огромная просьба, поблагодарите релизера, оцените раздачу и оставьте свои комментарий, если Вы скачали На районе через торрент бесплатно! Внесите свою лепту в развитие PiratBit!
    Комментировать посты могут только пользователи прошедшие не сложную регистрацию
    Показать сообщения:    

    На районе через торрент
    Скачать бесплатно На районе
    На районе скачать торрент
    На районе смотреть онлайн
    Cкачать фильм На районе бесплатно
    На районе скачать торрент в хорошем качестве
    На районе смотреть онлайн бесплатно в хорошем качестве


    Вы не можете начинать темы
    Вы не можете отвечать на сообщения
    Вы не можете редактировать свои сообщения
    Вы не можете удалять свои сообщения
    Вы не можете голосовать в опросах
    Вы не можете прикреплять файлы к сообщениям
    Вы можете скачивать файлы