1 сезон

1 сезон

iTunes

1

КиноПоиск HD

Кинопоиск HD

iTunes

13

1 сезон

RePack

30

Новинка

ВАЖНО

ИГРА 18+

pack

RePack

MK11
pack

Легкие деньги

RePack

jed

RePack

fifa19

RePack

RDR2

RePack

NEED FOR SPEED™ PAYBACK

4 сезон

9 сезон

Бесстыжие 9 сезон

Все сериалы

все сериалы на PB.wtf

RePack

FAR CRY 5
  
Magnet ссылка

Самайн / Evil Breed: The Legend of Samhain (Кристиан Виэль) [2003 г., ужасы, комедия, VHSRip, Любительский (двухголосый)] pb.wtf

Самайн через торрент pb.wtf

Размер: 683 MB | Добавлен: 2 года 5 мес. назад | Торрент скачан:2 раза
Скачать  

15-11-2018 12:27 Самайн Скачать торрент  

Самайн / Evil Breed: The Legend of Samhain
Год выпуска: 2003
Страна: Канада
Жанр: ужасы, комедия
Продолжительность: 01:22:41
Перевод: Любительский (двухголосый)
Субтитры: нет

Режиссер: Кристиан Виэль

Премьера в мире: 1 марта 2003

rating

В ролях: Бобби Филлипс (Карен Дуглас), Ховард Розенштейн (Пауль), Джинджер Линн Аллен (Пандора), Чейси Лэйн (Эми), Тейлор Хэйес , Дженна Джеймсон (Дженни), Ричард Греко (Марк), Фил Прайс (Стив), Нил Напье (Джим), Хайди Хоукинс (Тара), Джиллиан Ли (Барбара), Саймон Пикок (Гари)

Описание: Во время древнего друидского праздника Самайн американские студенты в Ирландии сталкиваются с мутантами-людоедоми

Качество: VHSRip
Формат: AVI
Видео кодек: DivX
Аудио кодек: MP3
Видео: 576x304 (1.89:1), 23.976 fps, DivX Codec 5.2 ~1015 kbps avg, 0.24 bit/pixel
Аудио#1: 48 kHz, MPEG Layer 3, 2 ch, ~124.75 kbps avg





Общее
Полное имя : E:\torrent\Новая загрузка(док)\Samhain.avi
Формат : AVI
Формат/Информация : Audio Video Interleave
Размер файла : 683 Мбайт
Продолжительность : 1 ч. 22 м.
Режим общего битрейта : Переменный
Общий поток : 1154 Кбит/сек
Программа кодирования : VirtualDubMod 1.5.10.1 (build 2439/release)
Библиотека кодирования : VirtualDubMod build 2439/release

Видео
Идентификатор : 0
Формат : MPEG-4 Visual
Параметр BVOP формата : Нет
Параметр QPel формата : Нет
Параметр GMC формата : Без точки перехода
Параметр матрицы формата : Default (H.263)
Идентификатор кодека : DX50
Идентификатор кодека/Подсказка : DivX 5
Продолжительность : 1 ч. 22 м.
Битрейт : 1017 Кбит/сек
Ширина : 576 пикселей
Высота : 304 пикселя
Соотношение сторон : 1,895
Частота кадров : 23,976 кадра/сек
Цветовое пространство : YUV
Субдискретизация насыщенности : 4:2:0
Битовая глубина : 8 бит
Тип развёртки : Прогрессивная
Метод сжатия : С потерями
Бит/(Пиксели*Кадры) : 0.242
Размер потока : 601 Мбайт (88%)
Библиотека кодирования : DivX 5.2.0 (UTC 2004-07-15)

Аудио
Идентификатор : 1
Формат : MPEG Audio
Версия формата : Version 1
Профиль формата : Layer 3
Режим : Dual mono
Идентификатор кодека : 55
Идентификатор кодека/Подсказка : MP3
Продолжительность : 1 ч. 22 м.
Вид битрейта : Переменный
Битрейт : 128 Кбит/сек
Каналы : 2 канала
Частота : 48,0 КГц
Метод сжатия : С потерями
Размер потока : 73,8 Мбайт (11%)
Выравнивание : Соединение по промежуткам
Продолжительность промежутка : 24 мс. (0,58 видеокадр)
Время предзагрузки промежутка : 440 мс.
Библиотека кодирования : LAME3.96r
Настройки программы : -m d -V 4 -q 3 -lowpass 17.5 --abr 128

pb.wtf



Скачать Самайн через торрент https://pic1.kartinco.top/images/11/4de2v.jpg Скачать фильм Самайн через торрент бесплантно в хорошем качестве Описание: Во время древнего друидского праздника Самайн американские студенты в Ирландии сталкиваются с ... 10 10 1
Торрент: Зарегистрирован [2018-11-15 12:27] · скачан: 2 раз
Статус: √ проверено
Размер: 683 MB
Как cкачать? Как скачать Самайн через торрент | UTorrent

28-11-2019 20:33  

Отключить всю рекламу на сайте

    Дорогой пользователь! Огромная просьба, поблагодарите релизера, оцените раздачу и оставьте свои комментарий, если Вы скачали Самайн через торрент бесплатно! Внесите свою лепту в развитие PiratBit!
    Комментировать посты могут только пользователи прошедшие не сложную регистрацию
    Показать сообщения:    

    Самайн через торрент
    Скачать бесплатно Самайн
    Самайн скачать торрент
    Самайн смотреть онлайн
    Cкачать фильм Самайн бесплатно
    Самайн скачать торрент в хорошем качестве
    Самайн смотреть онлайн бесплатно в хорошем качестве


    Вы не можете начинать темы
    Вы не можете отвечать на сообщения
    Вы не можете редактировать свои сообщения
    Вы не можете удалять свои сообщения
    Вы не можете голосовать в опросах
    Вы не можете прикреплять файлы к сообщениям
    Вы можете скачивать файлы