Ссылка на приватное зеркало нашего сайта всего за 1$. Внимание количество ограничено!!!

2 сезон

iTunes

1 сезон

1

2 сезон

2 сезон

iTunes

1 сезон

RePack

30

Ultimate

ВАЖНО

ИГРА 18+

pack

RePack

MK11
pack

Забери бонус

RePack

jed

!!Акция!!

Alien_Rage

RePack

fifa19

RePack

Assassins Creed: Odyssey

RePack

NEED FOR SPEED™ PAYBACK

4 сезон

9 сезон

Бесстыжие 9 сезон

Все сериалы

все сериалы на PB.wtf

RePack

FAR CRY 5
  

Двойка / The Deuce / Сезон: 2 / Серии: 1-9 из 9 (Джеймс Франко, Мишель МакЛарен, Ута Бризвитц) [2018, Драма, WEB-DL 1080p] MVO [Амедиа] pb.wtf

Двойка через торрент pb.wtf

Размер: 45.58 GB | Добавлен: 2 года назад | Торрент скачан:41 раз
Скачать  

15-11-2018 13:58 Двойка Скачать торрент  

Двойка / The Deuce
Год выпуска: 2018
Страна: США
Жанр: Драма
Продолжительность: ~00:58:00
Перевод: Профессиональный многоголосый | Амедиа
Субтитры: Русские, английские

Режиссер: Джеймс Франко, Мишель МакЛарен, Ута Бризвитц

rating

В ролях:

Джеймс Франко, Мэгги Джилленхол, Гари Карр, Маргарита Левиева, Лоуренс Гиллиард мл., Доминик Фишбэк, Эмили Мид, Гбенга Акиннагбе, Кристофер Бауэр

Описание:

Проект исследует беспорядочный мир порно-индустрии 1970-80х годов, процветавший в самом сердце Манхэттена, пока появление СПИДа, распространение наркотиков и обновление рынка недвижимости не положили конец этому безумию.

Качество: WEB-DL 1080p
Формат: MKV

Видео: MPEG-4 AVC, ~ 12.8 Мбит/с, 1920x1080
Аудио#1: Russian: AC3, 6 ch, 384 Кбит/с
Аудио#2: English: E-AC-3, 6 ch, 640 Кбит/с
скриншот  скриншот  скриншот  

Общее
Уникальный идентификатор : 327592731415699049272791243163859301355 (0xF67410AA5FE5699C8A9EF1400AAA33EB)
Полное имя : E:\The.Deuce.2017.S02.1080P.AMZN.WEB-DL.H264.RUS.SRT\The.Deuce.S02E01.Our.Raison.d'Etre.1080p.AMZN.WEB-DL.H264.RUS.DD5.1.SRT.Novamedia.mkv
Формат : Matroska
Версия формата : Version 4 / Version 2
Размер файла : 6,19 Гбайт
Продолжительность : 1 ч. 3 м.
Общий поток : 13,9 Мбит/сек
Название фильма : The Deuce, Season 2
Дата кодирования : UTC 2018-09-18 11:25:04
Программа кодирования : mkvmerge v26.0.0 ('In The Game') 64-bit
Библиотека кодирования : libebml v1.3.6 + libmatroska v1.4.9

Видео
Идентификатор : 1
Формат : AVC
Формат/Информация : Advanced Video Codec
Профиль формата : High@L4
Настройки формата : CABAC / 4 Ref Frames
Параметр CABAC формата : Да
Параметр RefFrames формата : 4 кадра
Идентификатор кодека : V_MPEG4/ISO/AVC
Продолжительность : 1 ч. 3 м.
Битрейт : 12,8 Мбит/сек
Ширина : 1920 пикселей
Высота : 1080 пикселей
Соотношение сторон : 16:9
Режим частоты кадров : Постоянный
Частота кадров : 23,976 (24000/1001) кадра/сек
Цветовое пространство : YUV
Субдискретизация насыщенности : 4:2:0
Битовая глубина : 8 бит
Тип развёртки : Прогрессивная
Бит/(Пиксели*Кадры) : 0.253
Размер потока : 5,61 Гбайт (91%)
Default : Да
Forced : Нет
Цветовой диапазон : Limited
Основные цвета : BT.709
Характеристики трансфера : BT.709
Коэффициенты матрицы : BT.709

Аудио #1
Идентификатор : 2
Формат : AC-3
Формат/Информация : Audio Coding 3
Идентификатор кодека : A_AC3
Продолжительность : 1 ч. 3 м.
Вид битрейта : Постоянный
Битрейт : 384 Кбит/сек
Каналы : 6 каналов
Расположение каналов : Front: L C R, Side: L R, LFE
Частота : 48,0 КГц
Частота кадров : 31,250 кадров/сек (1536 SPF)
Битовая глубина : 16 бит
Метод сжатия : С потерями
Размер потока : 176 Мбайт (3%)
Заголовок : Novamedia
Язык : Russian
ServiceKind/String : Complete Main
Default : Да
Forced : Нет

Аудио #2
Идентификатор : 3
Формат : E-AC-3
Формат/Информация : Enhanced Audio Coding 3
Идентификатор кодека : A_EAC3
Продолжительность : 1 ч. 3 м.
Вид битрейта : Постоянный
Битрейт : 640 Кбит/сек
Каналы : 6 каналов
Расположение каналов : Front: L C R, Side: L R, LFE
Частота : 48,0 КГц
Частота кадров : 187,500 кадров/сек (256 SPF)
Метод сжатия : С потерями
Размер потока : 293 Мбайт (5%)
Язык : English
ServiceKind/String : Complete Main
Default : Нет
Forced : Нет

Текст #1
Идентификатор : 4
Формат : UTF-8
Идентификатор кодека : S_TEXT/UTF8
Идентификатор кодека/Информация : UTF-8 Plain Text
Заголовок : Forced
Язык : Russian
Default : Да
Forced : Нет

Текст #2
Идентификатор : 5
Формат : UTF-8
Идентификатор кодека : S_TEXT/UTF8
Идентификатор кодека/Информация : UTF-8 Plain Text
Заголовок : Amedia
Язык : Russian
Default : Нет
Forced : Нет

Текст #3
Идентификатор : 6
Формат : UTF-8
Идентификатор кодека : S_TEXT/UTF8
Идентификатор кодека/Информация : UTF-8 Plain Text
Заголовок : SDH
Язык : English
Default : Нет
Forced : Нет

pb.wtf



Скачать Двойка через торрент https://a.radikal.ru/a15/1809/3e/80a1603062b6.jpg Скачать фильм Двойка через торрент бесплантно в хорошем качестве Описание: Проект исследует беспорядочный мир порно-индустрии 1970-80х годов, процветавший в самом сердце Манхэттена, пока появление СПИДа, ... 10 10 4
Info! Золотая раздача, скачанное не засчитывается.
Торрент: Зарегистрирован [2018-11-15 13:58] · скачан: 41 раз
Статус: √ проверено
Размер: 45.58 GB
Как cкачать? Как скачать Двойка через торрент | qTorrent

% Раздел Тема Автор DL S | L
Зарубежные сериалы [ 45.89 GB ] Двойка / The Deuce / Сезон 2 / Серия 1-9 из 9 [2018 WEBRip 1080p] [MVO] killermax2013 Скачать
1 | 0
Зарубежные сериалы [ 45.69 GB ] Двойка / The Deuce / Сезон: 2 / Серии: 1-9 из 9 [2018 WEB-DL 1080p] MVO [TVShows] bober100 Скачать
1 | 0
Зарубежные сериалы [ 12.99 GB ] Двойка / The Deuce / Сезон: 2 / Серии: 1-9 из 9 [2018 WEB-DL 720p] MVO [Амедиа] bober100 Скачать
1 | 0
Зарубежные сериалы [ 12.09 GB ] Двойка / The Deuce / Сезон: 2 / Серии: 1-9 из 9 [2018 WEB-DL 720p] MVO [Jaskier] bober100 Скачать
1 | 0
Зарубежные сериалы [ 44.68 GB ] Двойка / The Deuce / Сезон: 2 / Серии: 1-9 из 9 [2018 WEB-DL 1080p] MVO [Jaskier] bober100 Скачать
1 | 0
Зарубежные сериалы [ 6.69 GB ] Двойка / The Deuce / Сезон: 2 / Серии: 1-9 из 9 [2018 WEB-DLRip] MVO [Jaskier] bober100 Скачать
1 | 0
Зарубежные сериалы [ 6.45 GB ] Двойка / The Deuce / Сезон: 2 / Серии: 1-8 из 9 [2018 WEBRip] MVO [Амедиа] bober100 Скачать
1 | 0

28-11-2019 20:33  

Отключить всю рекламу на сайте

    Дорогой пользователь! Огромная просьба, поблагодарите релизера, оцените раздачу и оставьте свои комментарий, если Вы скачали Двойка через торрент бесплатно! Внесите свою лепту в развитие PiratBit!
    Комментировать посты могут только пользователи прошедшие не сложную регистрацию
    Показать сообщения:    

    Двойка через торрент
    Скачать бесплатно Двойка
    Двойка скачать торрент
    Двойка смотреть онлайн
    Cкачать фильм Двойка бесплатно
    Двойка скачать торрент в хорошем качестве
    Двойка смотреть онлайн бесплатно в хорошем качестве


    Вы не можете начинать темы
    Вы не можете отвечать на сообщения
    Вы не можете редактировать свои сообщения
    Вы не можете удалять свои сообщения
    Вы не можете голосовать в опросах
    Вы не можете прикреплять файлы к сообщениям
    Вы можете скачивать файлы