Ссылка на приватное зеркало нашего сайта всего за 1$. Внимание количество ограничено!!!

2 сезон

iTunes

1 сезон

1

iTunes

iTunes

iTunes

1 сезон

RePack

30

ИГРА 18+

pack

ВАЖНО

!!Акция!!

Alien_RageХит недели

RePack

MK11
pack

Забери бонус

RePack

jed

!!Акция!!

Alien_Rage

RePack

fifa19

RePack

Assassins Creed: Odyssey

RePack

NEED FOR SPEED™ PAYBACK

4 сезон

9 сезон

Бесстыжие 9 сезон

Все сериалы

все сериалы на PB.wtf

RePack

FAR CRY 5
  

Ненастье / Сезон: 1 / Серии: 1-11 из 11 (Сергей Урсуляк) [2018, Драма, HDTV 1080i] pb.wtf

Ненастье через торрент pb.wtf

Размер: 24.32 GB | Добавлен: 1 год 11 мес. назад | Торрент скачан:76 раз
Скачать  

15-11-2018 14:04 Ненастье Скачать торрент  

НенастьеГод выпуска: 2018
Страна: Россия
Жанр: Драма
Продолжительность: ~ 00:45:00
Субтитры: отсутствуют

Режиссер: Сергей Урсуляк



В ролях:

Александр Яценко, Александр Горбатов (II), Татьяна Лялина, Сергей Маковецкий, Серафима Красникова, Сослан Фидаров, Антон Филипенко, Евгений Смирнов-Иваницкий, Олег Кассин, Александр Голубев, Олег Байкулов, Тарас Епифанцев, Алексей Дякин, Никита Тезов, Александр Кузнецов (IX), Максим Деричев, Татьяна Сомова, Иван Куколев, Валерий Карпов (III)

Описание:

По роману Алексея Иванова. 90-е. Время больших перемен. Крушение иллюзий. Сломанные судьбы. Несбывшиеся мечты. И любовь... Любовь вопреки всему. Они вернулись в свою страну после Афганистана, но страна стала совсем другой. Они рассчитывают только на себя. Они доверяют только друг другу. В одном из уральских городов совершено дерзкое ограбление! Похищены 140 миллионов рублей! Грабитель – бывший «афганец» Герман Неволин, водитель инкассаторской машины. Что толкнуло его на преступление? Почему он принёс в жертву всё, чем дорожил – дружбу, любовь, и теперь вынужден скрываться в заброшенной деревушке Ненастье?..

Качество: HDTV 1080i
Формат: TS

Видео: MPEG-4 AVC, ~ 7100 Кбит/с, 1920x1080, 25 кадр/с
Аудио: Русский (MP2, 2 ch, 192 Кбит/с)
скриншот  скриншот  скриншот  

General
ID : 1 (0x1)
Complete name : D:\Nenast'e.2018.HDTV.1080i\Nenast'e.01.2018.HDTV.1080i.ts
Format : MPEG-TS
File size : 2.44 GiB
Duration : 45 min 43 s
Overall bit rate mode : Variable
Overall bit rate : 7 645 kb/s

Video
ID : 2911 (0xB5F)
Menu ID : 1192 (0x4A8)
Format : AVC
Format/Info : Advanced Video Codec
Format profile : High@L4
Format settings : CABAC / 4 Ref Frames
Format settings, CABAC : Yes
Format settings, ReFrames : 4 frames
Codec ID : 27
Duration : 45 min 43 s
Bit rate : 7 074 kb/s
Width : 1 920 pixels
Height : 1 080 pixels
Display aspect ratio : 16:9
Frame rate : 25.000 FPS
Color space : YUV
Chroma subsampling : 4:2:0
Bit depth : 8 bits
Scan type : MBAFF
Scan type, store method : Interleaved fields
Scan order : Top Field First
Bits/(Pixel*Frame) : 0.136
Stream size : 2.26 GiB (93%)

Audio
ID : 2912 (0xB60)
Menu ID : 1192 (0x4A8)
Format : MPEG Audio
Format version : Version 1
Format profile : Layer 2
Format settings : Joint stereo / Intensity Stereo + MS Stereo
Codec ID : 3
Duration : 45 min 43 s
Bit rate mode : Constant
Bit rate : 192 kb/s
Channel(s) : 2 channels
Sampling rate : 48.0 kHz
Frame rate : 41.667 FPS (1152 SPF)
Compression mode : Lossy
Stream size : 62.8 MiB (3%)
Language : Russian

pb.wtf



Скачать Ненастье через торрент https://c.radikal.ru/c15/1811/90/132f17d8e4d9.jpg Скачать фильм Ненастье через торрент бесплантно в хорошем качестве Описание: По роману Алексея Иванова. 90-е. Время больших перемен. Крушение иллюзий. Сломанные судьбы. Несбывшиеся мечты. И любовь... Любовь ... 8.2 10 6
Info! Золотая раздача, скачанное не засчитывается.
Торрент: Зарегистрирован [2018-11-15 20:41] · скачан: 76 раз
Статус: √ проверено
Размер: 24.32 GB
Как cкачать? Как скачать Ненастье через торрент | qTorrent

% Раздел Тема Автор DL S | L
Наши сериалы [ 13.33 GB ] Ненастье / Сезон: 1 / Серии: 1-11 из 11 [2018 HDTVRip 720p] bober100 Скачать
2 | 0
Наши сериалы [ 6.98 GB ] Ненастье / Сезон: 1 / Серии: 1-11 из 11 [2018 HDTVRip-AVC] bober100 Скачать
1 | 0
Наши сериалы [ 5.4 GB ] Ненастье / Сезон: 1 / Серии: 1-11 из 11 [2018 HDTVRip] bober100 Скачать
1 | 0
Наши сериалы [ 5.88 GB ] Ненастье / Сезон: 1 / Серии: 1-11 из 11 [2018 SATRip] bober100 Скачать
1 | 0

28-11-2019 20:33  

Отключить всю рекламу на сайте

    Дорогой пользователь! Огромная просьба, поблагодарите релизера, оцените раздачу и оставьте свои комментарий, если Вы скачали Ненастье через торрент бесплатно! Внесите свою лепту в развитие PiratBit!
    Комментировать посты могут только пользователи прошедшие не сложную регистрацию
    Показать сообщения:    

    Ненастье через торрент
    Скачать бесплатно Ненастье
    Ненастье скачать торрент
    Ненастье смотреть онлайн
    Cкачать фильм Ненастье бесплатно
    Ненастье скачать торрент в хорошем качестве
    Ненастье смотреть онлайн бесплатно в хорошем качестве


    Вы не можете начинать темы
    Вы не можете отвечать на сообщения
    Вы не можете редактировать свои сообщения
    Вы не можете удалять свои сообщения
    Вы не можете голосовать в опросах
    Вы не можете прикреплять файлы к сообщениям
    Вы можете скачивать файлы