Ссылка на приватное зеркало нашего сайта всего за 1$. Внимание количество ограничено!!!

2 сезон

iTunes

1 сезон

1

2 сезон

2 сезон

iTunes

1 сезон

RePack

30

Ultimate

ВАЖНО

ИГРА 18+

pack

RePack

MK11
pack

Забери бонус

RePack

jed

!!Акция!!

Alien_Rage

RePack

fifa19

RePack

Assassins Creed: Odyssey

RePack

NEED FOR SPEED™ PAYBACK

4 сезон

9 сезон

Бесстыжие 9 сезон

Все сериалы

все сериалы на PB.wtf

RePack

FAR CRY 5
  

Возвращение домой / Homecoming / Сезон: 1 / Серии: 1-10 из 10 (Сэм Эсмейл) [2018, Триллер, драма, WEB-DL 720p] MVO [Jaskier] pb.wtf

Возвращение домой через торрент pb.wtf

Размер: 6.85 GB | Добавлен: 2 года назад | Торрент скачан:27 раз
Скачать  

15-11-2018 19:18 Возвращение домой Скачать торрент  

Возвращение домой / Homecoming Год выпуска: 2018
Страна: США
Жанр: Триллер, драма
Продолжительность: ~ 00:30:00
Перевод: Профессиональный (многоголосый закадровый) | Jaskier

Режиссёр: Сэм Эсмейл

В ролях:

Джулия Робертс, Бобби Каннавейл, Стэфан Джеймс, Шей Уигэм, Алекс Карповски, Айден Майэри, Маркус Хендерсон, Сисси Спейсек, Билл Стивенсон, Марианн Жан-Баптист

Описание:

Солдат и социальный работник секретной правительственной службы пытаются вернуться к нормальной жизни в роли гражданских.

rating

Качество: WEB-DL 720p
Формат: MKV

Видео: 1280x720 (16:9) | X264 | ~2413 kbps | 23.976 fps
Аудио 1: AC3 | 48 KHz | 5.1 (Front: L С R Side: L R) + LFE | ~384 kbps [RUS]
Аудио 2: AC3 | 48 KHz | 5.1 (Front: L С R Side: L R) + LFE | ~384 kbps [ENG]


Реклама: Присутствует звуковая (два раза в начале и конце по 10 сек.)
Переведено и озвучено: студией Jaskier
Общее
Уникальный идентификатор                 : 311653630199480122160582814798652154953 (0xEA764E4D5A6CBB64AF4E73DF2240A449)
Полное имя                               : G:\Jaskier\Homecoming Season 1 (WEB-DL l 720p l Jaskier)\Homecoming.S01E01.WEB-DL.720p.Jaskier.mkv
Формат                                   : Matroska
Версия формата                           : Version 4 / Version 2
Размер файла                             : 612 Мбайт
Продолжительность                        : 26 м. 52 с.
Режим общего битрейта                    : Переменный
Общий поток                              : 3183 Кбит/сек
Дата кодирования                         : UTC 2018-11-13 18:57:15
Программа кодирования                    : mkvmerge v28.0.0 ('Voice In My Head') 64-bit
Библиотека кодирования                   : libebml v1.3.6 + libmatroska v1.4.9

Видео
Идентификатор                            : 1
Формат                                   : AVC
Формат/Информация                        : Advanced Video Codec
Профиль формата                          : High@L3.1
Настройки формата                        : CABAC / 5 Ref Frames
Параметр CABAC формата                   : Да
Параметр RefFrames формата               : 5 кадров
Идентификатор кодека                     : V_MPEG4/ISO/AVC
Продолжительность                        : 26 м. 52 с.
Вид битрейта                             : Переменный
Битрейт                                  : 2413 Кбит/сек
Максимальный битрейт                     : 4500 Кбит/сек
Ширина                                   : 1280 пикселей
Высота                                   : 720 пикселей
Соотношение сторон                       : 16:9
Режим частоты кадров                     : Постоянный
Частота кадров                           : 23,976 (24000/1001) кадра/сек
Цветовое пространство                    : YUV
Субдискретизация насыщенности            : 4:2:0
Битовая глубина                          : 8 бит
Тип развёртки                            : Прогрессивная
Бит/(Пиксели*Кадры)                      : 0.109
Размер потока                            : 464 Мбайт (76%)
Default                                  : Да
Forced                                   : Нет
Цветовой диапазон                        : Limited
Основные цвета                           : BT.709
Характеристики трансфера                 : BT.709
Коэффициенты матрицы                     : BT.709

Аудио #1
Идентификатор                            : 2
Формат                                   : AC-3
Формат/Информация                        : Audio Coding 3
Идентификатор кодека                     : A_AC3
Продолжительность                        : 26 м. 52 с.
Вид битрейта                             : Постоянный
Битрейт                                  : 384 Кбит/сек
Каналы                                   : 6 каналов
Расположение каналов                     : Front: L C R, Side: L R, LFE
Частота                                  : 48,0 КГц
Частота кадров                           : 31,250 кадров/сек (1536 SPF)
Битовая глубина                          : 16 бит
Метод сжатия                             : С потерями
Размер потока                            : 73,8 Мбайт (12%)
Язык                                     : Russian
ServiceKind/String                       : Complete Main
Default                                  : Да
Forced                                   : Нет

Аудио #2
Идентификатор                            : 3
Формат                                   : AC-3
Формат/Информация                        : Audio Coding 3
Идентификатор кодека                     : A_AC3
Продолжительность                        : 26 м. 52 с.
Вид битрейта                             : Постоянный
Битрейт                                  : 384 Кбит/сек
Каналы                                   : 6 каналов
Расположение каналов                     : Front: L C R, Side: L R, LFE
Частота                                  : 48,0 КГц
Частота кадров                           : 31,250 кадров/сек (1536 SPF)
Битовая глубина                          : 16 бит
Метод сжатия                             : С потерями
Размер потока                            : 73,8 Мбайт (12%)
Язык                                     : English
ServiceKind/String                       : Complete Main
Default                                  : Нет
Forced                                   : Нет
скриншот  скриншот  скриншот  
pb.wtf



Скачать Возвращение домой через торрент https://i106.fastpic.ru/big/2018/1115/07/887999aebbac2c2e394de13d295ba107.png Скачать фильм Возвращение домой через торрент бесплантно в хорошем качестве Описание: Солдат и социальный работник секретной правительственной службы пытаются вернуться к нормальной жизни в роли гражданских. ... 7.8 10 4
Торрент: Зарегистрирован [2018-11-15 19:18] · скачан: 27 раз
Статус: √ проверено
Размер: 6.85 GB
Как cкачать? Как скачать Возвращение домой через торрент | qTorrent

% Раздел Тема Автор DL S | L
Зарубежные сериалы [ 23.03 GB ] Возвращение домой / Homecoming / Сезон: 2 / Серии: 1-7 из 7 [2020 WEBRip 1080p] MVO [Jaskier] bober100 Скачать
2 | 0
Зарубежные сериалы [ 23.41 GB ] Возвращение домой / Homecoming / Сезон: 2 / Серии: 1-7 из 7 [2020 WEBRip 1080p] MVO [LostFilm] bober100 Скачать
2 | 0
Зарубежные сериалы [ 23.8 GB ] Возвращение домой / Homecoming / Сезон: 2 / Серии: 1-7 из 7 [2020 WEBRip 1080p] MVO [NewStudio] bober100 Скачать
1 | 0
Зарубежные сериалы [ 7.96 GB ] Возвращение домой / Homecoming / Сезон: 1 / Серии: 1-10 из 10 [2018 WEBRip 720p] MVO [Good People] bober100 Скачать
1 | 0
Зарубежные сериалы [ 3.73 GB ] Возвращение домой / Homecoming / Сезон: 1 / Серии: 1-10 из 10 [2018 WEB-DLRip] MVO [NewStudio] bober100 Скачать
1 | 0
Зарубежные сериалы [ 21.77 GB ] Возвращение домой / Homecoming / Сезон: 1 / Серии: 1-10 из 10 [2018 WEBRip 1080p] [MVO] killermax2013 Скачать
1 | 0
Зарубежные сериалы [ 16.68 GB ] Возвращение домой / Homecoming / Сезон: 1 / Серии: 1-10 из 10 [2018 WEB-DL 1080p] [MVO] killermax2013 Скачать
1 | 0

28-11-2019 20:33  

Отключить всю рекламу на сайте

    Дорогой пользователь! Огромная просьба, поблагодарите релизера, оцените раздачу и оставьте свои комментарий, если Вы скачали Возвращение домой через торрент бесплатно! Внесите свою лепту в развитие PiratBit!
    Комментировать посты могут только пользователи прошедшие не сложную регистрацию
    Показать сообщения:    

    Возвращение домой через торрент
    Скачать бесплатно Возвращение домой
    Возвращение домой скачать торрент
    Возвращение домой смотреть онлайн
    Cкачать фильм Возвращение домой бесплатно
    Возвращение домой скачать торрент в хорошем качестве
    Возвращение домой смотреть онлайн бесплатно в хорошем качестве


    Вы не можете начинать темы
    Вы не можете отвечать на сообщения
    Вы не можете редактировать свои сообщения
    Вы не можете удалять свои сообщения
    Вы не можете голосовать в опросах
    Вы не можете прикреплять файлы к сообщениям
    Вы можете скачивать файлы