Ссылка на приватное зеркало всего за 1$. Внимание количество ограничено!!!

iTunes

iTunes

iTunes

1

iTunes

iTunes

iTunes

WEBRip

iTunes

30
pack

$ от Little Big

ВАЖНО

!!Акция!!

Alien_RageХит недели

RePack

Resident Evil 21

ИГРА 18+

pack

RePack

jed

!!Акция!!

Alien_Rage

RePack

fifa19

RePack

Assassins Creed: Odyssey

RePack

NEED FOR SPEED™ PAYBACK

4 сезон

9 сезон

Бесстыжие 9 сезон

Все сериалы

все сериалы на PB.wtf

RePack

FAR CRY 5
  

На районе (Ольга Зуева) [2018, Драма, WEB-DLRip] [iTunes] pb.wtf

На районе через торрент pb.wtf

Размер: 745 MB | Добавлен: 1 год 8 мес. назад | Торрент скачан:240 раз
Скачать  

15-11-2018 20:28 На районе Скачать торрент  

На районе Год выпуска: 2018
Страна: Россия
Жанр: Драма
Продолжительность: 01:31:26
Перевод: Не требуется | iTunes
Субтитры: отсутствуют

Режиссер: Ольга Зуева

rating

В ролях:

Данила Козловский, Илья Маланин, Елена Оболенская, Ангелина Стречина, Ольга Зуева, Андрей Амшинский, Эдгар Гизатуллин, Александр Мизев, Владимир Хацкевич, Владимир Афанасьев

Описание:

Вова и его лучший друг Киса зарабатывают деньги, занимаясь нелегальной деятельностью. Их жизнь проходит на волне веселья, в погоне за острыми ощущениями и кратковременными удовольствиями, пока очередной заказ не приводит их дружбу к главному испытанию, заставив каждого ответить на вопрос: кто ты?

Качество: WEB-DLRip
Формат: AVI

Видео: XviD build 73, 688x288 (2.40:1), 25.000 fps, 1002 Kbps (0.202 bit/pixel)
Аудио: 48.0 kHz, MP3, 2/0 ch, 128 kbps
скриншот  скриншот  скриншот  скриншот  

General
Complete name : D:RazdachiNa.Rajone.2018.XviD.WEB-DLRip.GeneralFilm.avi
Format : AVI
Format/Info : Audio Video Interleave
File size : 745 MiB
Duration : 1 h 31 min
Overall bit rate : 1 139 kb/s
Writing application : VirtualDubMod 1.5.10.3 | www.virtualdub-fr.org || (build 2550/release)
Writing library : VirtualDubMod build 2550/release

Video
ID : 0
Format : MPEG-4 Visual
Format profile : Advanced Simple@L5
Format settings, BVOP : 1
Format settings, QPel : No
Format settings, GMC : No warppoints
Format settings, Matrix : Custom
Codec ID : XVID
Codec ID/Hint : XviD
Duration : 1 h 31 min
Bit rate : 1 002 kb/s
Width : 688 pixels
Height : 288 pixels
Display aspect ratio : 2.40:1
Frame rate : 25.000 FPS
Color space : YUV
Chroma subsampling : 4:2:0
Bit depth : 8 bits
Scan type : Progressive
Compression mode : Lossy
Bits/(Pixel*Frame) : 0.202
Stream size : 655 MiB (88%)
Writing library : XviD 73

Audio
ID : 1
Format : MPEG Audio
Format version : Version 1
Format profile : Layer 3
Codec ID : 55
Codec ID/Hint : MP3
Duration : 1 h 31 min
Bit rate mode : Constant
Bit rate : 128 kb/s
Channel(s) : 2 channels
Sampling rate : 48.0 kHz
Compression mode : Lossy
Stream size : 83.7 MiB (11%)
Alignment : Aligned on interleaves
Interleave, duration : 40 ms (1.00 video frame)
Interleave, preload duratio : 504 ms
Writing library : LAME3.99r
Encoding settings : -m s -V 4 -q 2 -lowpass 17 -b 128

pb.wtf



Скачать На районе через торрент https://b.radikal.ru/b20/1810/44/e7b56a3a03b3.jpg Скачать фильм На районе через торрент бесплантно в хорошем качестве Описание: Вова и его лучший друг Киса зарабатывают деньги, занимаясь нелегальной деятельностью. Их жизнь проходит на волне веселья, в ... 10 10 4
Торрент: Зарегистрирован [2018-11-15 20:28] · скачан: 240 раз
Статус: √ проверено
Размер: 745 MB
Как cкачать? Как скачать На районе через торрент | qTorrent

% Раздел Тема Автор DL S | L
Наши сериалы [ 20.53 GB ] Адмиралы района / Сезон: 1 / Серии: 1-16 из 16 [2020 WEBRip 720p] bober100 Скачать
1 | 0
Наши сериалы [ 12.19 GB ] Адмиралы района / Сезон: 1 / Серии: 1-16 из 16 [2020 WEBRip-AVC] bober100 Скачать
2 | 0
Наши сериалы [ 10.02 GB ] Адмиралы района / Сезон: 1 / Серии: 1-16 из 16 [2020 WEBRip] bober100 Скачать
1 | 0
Наши сериалы [ 34.37 GB ] Адмиралы района / Сезон: 1 / Серии: 1-16 из 16 [2020 WEBRip 1080p] bober100 Скачать
1 | 0
Наши сериалы [ 9.43 GB ] Адмиралы района / Серии: 1-16 из 16 [2020 SATRip-AVC] aleksan55 Скачать
2 | 0
Наши сериалы [ 10.19 GB ] Адмиралы района / Сезон: 1 / Серии: 1-16 из 16 [2020 SATRip] bober100 Скачать
2 | 1
Фильмы (HD 720p, 1080p) (48-60 fps) [ 12.99 GB ] Район №9 / District 9 [2009 Новая Зеландия ЮАР BDRip 1080p / 60 FPS ] Tiberiumsun69 Скачать
1 | 0

28-11-2019 20:33  

Отключить всю рекламу на сайте

    Дорогой пользователь! Огромная просьба, поблагодарите релизера, оцените раздачу и оставьте свои комментарий, если Вы скачали На районе через торрент бесплатно! Внесите свою лепту в развитие PiratBit!
    Комментировать посты могут только пользователи прошедшие не сложную регистрацию
    Показать сообщения:    

    На районе через торрент
    Скачать бесплатно На районе
    На районе скачать торрент
    На районе смотреть онлайн
    Cкачать фильм На районе бесплатно
    На районе скачать торрент в хорошем качестве
    На районе смотреть онлайн бесплатно в хорошем качестве


    Вы не можете начинать темы
    Вы не можете отвечать на сообщения
    Вы не можете редактировать свои сообщения
    Вы не можете удалять свои сообщения
    Вы не можете голосовать в опросах
    Вы не можете прикреплять файлы к сообщениям
    Вы можете скачивать файлы