новый адрес пиратбит piratbit
Мега распродажа FORZA HORIZON 4 ULTIMATE+ВСЕ DLC+ОНЛАЙН всего за 499р. 349 руб. (супер цена). Внимание количество ограничено!!!

iTunes

1+1

iTunes

мы

iTunes

1

iTunes

Чернобыль

iTunes

Ральф против интернета

Лицензия

ПШазам

Лицензия

Игра престолов

Лицензия

30
pack

ВАЖНО

!!Акция!!

Alien_RageХит недели

RePack

Resident Evil 21

ИГРА 18+

pack

RePack

Metro:Exodus

!!Акция!!

Alien_Rage

RePack

fifa19

RePack

Assassins Creed: Odyssey

RePack

NEED FOR SPEED™ PAYBACK

3 сезон

9 сезон

Бесстыжие 9 сезон

Все сериалы

все сериалы на PB.wtf

RePack

FAR CRY 5
Ребята, катастрофически не хватает 1900р. для оплаты серверов за Октябрь (всвязи с блокировками трафик упал в 3 раза), 1-2р., выручайте.
  

Суперфлай / Superfly (Директор Икс.) [2018, боевик, триллер, криминал, BD Remux 1080p] MVO [Лицензия] pb.wtf

Суперфлай через торрент pb.wtf

Размер: 22.5 GB | Добавлен: 11 мес. назад | Торрент скачан:7 раз
Скачать  

15-11-2018 20:35 Суперфлай Скачать торрент  

Суперфлай / Superfly
Год выпуска: 2018
Страна: США
Жанр: боевик, триллер, криминал
Продолжительность: 01:56:10
Перевод: Профессиональный (многоголосый) | Лицензия
Субтитры: Русские (Forced, full), английские

Режиссер: Директор Икс.

rating

В ролях:

Тревор Джексон, Джейсон Митчелл, Майкл Кеннет Уильямс, Лекс Скотт Дэвис, Дженнифер Моррисон, Каалан Рашад Уокер, Эсай Моралес, Андреа Лондо, Биг Банк Блэк, Биг Бой

Описание:

Темнокожий наркодилер Янгблад Прист ждет не дождется, когда он сможет выйти из преступного бизнеса. Но для начала ему нужно заработать на честную жизнь, продав огромную партию кокаина. Список дел Приста пополняется разборками с полицейскими, разоблачением друга-предателя и устройством личной жизни с любимой девушкой Джорджией.

Качество: BD Remux 1080p
Формат: MKV

Видео: MPEG-4 AVC, 1920x1080, 24.8 Mbit/s, 23.976 fps
Аудио#1: 48 kHz, AC3, 5.1, 640 Kbps | Лицензия | RUS |
Аудио#2: 48 kHz, DTS-HD MA, 5.1, 2237 Kbps | Оригинал | ENG |
скриншот  скриншот  скриншот  скриншот  скриншот  

General
Unique ID : 316286740139323102275521467960167174433 (0xEDF29C422BDD91CA9D7A171D6EAF1121)
Complete name : D:Video111Superfly.2018.BDREMUX.1080p.selezen.mkv
Format : Matroska
Format version : Version 4
File size : 22.5 GiB
Duration : 1 h 56 min
Overall bit rate mode : Variable
Overall bit rate : 27.7 Mb/s
Movie name : Superfly 2018 from селезень
Encoded date : UTC 2018-11-15 17:53:30
Writing application : mkvmerge v28.2.0 ('The Awakening') 64-bit
Writing library : libebml v1.3.6 + libmatroska v1.4.9

Video
ID : 1
Format : AVC
Format/Info : Advanced Video Codec
Format profile : High@L4.1
Format settings : CABAC / 2 Ref Frames
Format settings, CABAC : Yes
Format settings, ReFrames : 2 frames
Format settings, GOP : M=1, N=10
Codec ID : V_MPEG4/ISO/AVC
Duration : 1 h 56 min
Bit rate mode : Variable
Bit rate : 24.8 Mb/s
Width : 1 920 pixels
Height : 1 080 pixels
Display aspect ratio : 16:9
Frame rate mode : Constant
Frame rate : 23.976 (24000/1001) FPS
Color space : YUV
Chroma subsampling : 4:2:0
Bit depth : 8 bits
Scan type : Progressive
Bits/(Pixel*Frame) : 0.500
Stream size : 20.2 GiB (90%)
Language : English
Default : Yes
Forced : No

Audio #1
ID : 2
Format : AC-3
Format/Info : Audio Coding 3
Commercial name : Dolby Digital
Codec ID : A_AC3
Duration : 1 h 56 min
Bit rate mode : Constant
Bit rate : 640 kb/s
Channel(s) : 6 channels
Channel layout : L R C LFE Ls Rs
Sampling rate : 48.0 kHz
Frame rate : 31.250 FPS (1536 SPF)
Bit depth : 16 bits
Compression mode : Lossy
Stream size : 532 MiB (2%)
Title : Dub [License]
Language : Russian
Service kind : Complete Main
Default : Yes
Forced : Yes

Audio #2
ID : 3
Format : DTS XLL
Format/Info : Digital Theater Systems
Commercial name : DTS-HD Master Audio
Codec ID : A_DTS
Duration : 1 h 56 min
Bit rate mode : Variable
Bit rate : 2 237 kb/s
Channel(s) : 6 channels
Channel layout : C L R Ls Rs LFE
Sampling rate : 48.0 kHz
Frame rate : 93.750 FPS (512 SPF)
Bit depth : 16 bits
Compression mode : Lossless
Stream size : 1.82 GiB (8%)
Title : Original
Language : English
Default : No
Forced : No

Text #1
ID : 4
Format : UTF-8
Codec ID : S_TEXT/UTF8
Codec ID/Info : UTF-8 Plain Text
Duration : 1 h 24 min
Bit rate : 1 b/s
Count of elements : 23
Stream size : 1.22 KiB (0%)
Title : Forced
Language : Russian
Default : Yes
Forced : Yes

Text #2
ID : 5
Format : UTF-8
Codec ID : S_TEXT/UTF8
Codec ID/Info : UTF-8 Plain Text
Duration : 1 h 54 min
Bit rate : 84 b/s
Count of elements : 1584
Stream size : 71.0 KiB (0%)
Title : Full
Language : Russian
Default : No
Forced : No

Text #3
ID : 6
Format : UTF-8
Codec ID : S_TEXT/UTF8
Codec ID/Info : UTF-8 Plain Text
Duration : 1 h 47 min
Bit rate : 64 b/s
Count of elements : 1531
Stream size : 50.8 KiB (0%)
Title : Full
Language : English
Default : No
Forced : No

Text #4
ID : 7
Format : UTF-8
Codec ID : S_TEXT/UTF8
Codec ID/Info : UTF-8 Plain Text
Duration : 1 h 56 min
Bit rate : 83 b/s
Count of elements : 2069
Stream size : 70.7 KiB (0%)
Title : SDH
Language : English
Default : No
Forced : No

Menu
00:00:00.000 : :00:00:00.000
00:05:54.312 : :00:05:54.312
00:14:24.322 : :00:14:24.322
00:21:11.604 : :00:21:11.604
00:28:39.968 : :00:28:39.968
00:35:25.915 : :00:35:25.915
00:40:37.894 : :00:40:37.894
00:47:54.121 : :00:47:54.121
00:54:24.511 : :00:54:24.511
01:00:06.228 : :01:00:06.228
01:08:10.837 : :01:08:10.837
01:16:01.432 : :01:16:01.432
01:22:30.571 : :01:22:30.571
01:32:03.560 : :01:32:03.560
01:38:19.977 : :01:38:19.977
01:47:35.616 : :01:47:35.616

pb.wtf



Скачать Суперфлай через торрент http://img11.lostpic.net/2018/11/15/f441454c0549e5b01452219c6e08abfb.jpg Скачать фильм Суперфлай через торрент бесплантно в хорошем качестве Описание: Темнокожий наркодилер Янгблад Прист ждет не дождется, когда он сможет выйти из преступного бизнеса. Но для начала ему нужно ... 10 10 3
Торрент: Зарегистрирован [2018-11-15 20:35] · скачан: 7 раз
Статус: √ проверено
Размер: 22.5 GB
Как cкачать? Как скачать Суперфлай через торрент | qTorrent

% Раздел Тема Автор DL S | L
Фильмы (Blu-ray, BD-Remux, HDDVD) [ 33.5 GB ] Суперфлай / Superfly [2018 Blu-ray EUR 1080p] MVO [] bober100 Скачать
1 | 0
T Фильмы [HD 720p, 1080p] (Хороший звук DUB, MVO) [ 7.22 GB ] Суперфлай / Superfly [2018 BDRip 720p] MVO [HDrezka Studio] bober100 Скачать
1 | 0
Фильмы 2018 [DVDrip, WEB-DLRip, HDrip] (DUB, MVO) [ 2.18 GB ] Суперфлай / Superfly [2018 BDRip] MVO [] Twi7ter Скачать
1 | 0
Фильмы 2018 [DVDrip, WEB-DLRip, HDrip] (DUB, MVO) [ 1.46 GB ] Суперфлай / Superfly [2018 BDRip] MVO [] Twi7ter Скачать
1 | 0
Фильмы (Blu-ray, BD-Remux, HDDVD) [ 23.21 GB ] Суперфлай / Superfly [2018 BD Remux 1080p] MVO [R5] bober100 Скачать
1 | 0
Фильмы 2018 [DVDrip, WEB-DLRip, HDrip] (DUB, MVO) [ 1.46 GB ] Суперфлай / Superfly [2018 BDRip] MVO [R5] bober100 Скачать
1 | 0
T Фильмы [HD 720p, 1080p] (Хороший звук DUB, MVO) [ 7.92 GB ] Суперфлай / Superfly [2018 BDRip 1080p] MVO [HDrezka Studio] bober100 Скачать
1 | 0


>> Регистрируемся здесь <<






Отзывы и комментарии о схеме читаем и пишем здесь: ---> Отзывы и комментарии о схеме

Новые благодарочки в телеграм довольных пользователей:
скриншот   скриншот   скриншот   скриншот   скриншот
    Дорогой пользователь! Огромная просьба, поблагодарите релизера, оцените раздачу и оставьте свои комментарий, если Вы скачали Суперфлай через торрент бесплатно! Внесите свою лепту в развитие PiratBit!
    Комментировать посты могут только пользователи прошедшие не сложную регистрацию
    Показать сообщения:    

    Суперфлай через торрент
    Скачать бесплатно Суперфлай
    Суперфлай скачать торрент
    Суперфлай смотреть онлайн
    Cкачать фильм Суперфлай бесплатно
    Суперфлай скачать торрент в хорошем качестве
    Суперфлай смотреть онлайн бесплатно в хорошем качестве


    Вы не можете начинать темы
    Вы не можете отвечать на сообщения
    Вы не можете редактировать свои сообщения
    Вы не можете удалять свои сообщения
    Вы не можете голосовать в опросах
    Вы не можете прикреплять файлы к сообщениям
    Вы можете скачивать файлы