2 сезон

iTunes

1 сезон

1

iTunes

iTunes

iTunes

1 сезон

RePack

30

ИГРА 18+

pack

ВАЖНО

!!Акция!!

Alien_RageХит недели

RePack

MK11
pack

Забери бонус

RePack

jed

!!Акция!!

Alien_Rage

RePack

fifa19

RePack

Assassins Creed: Odyssey

RePack

NEED FOR SPEED™ PAYBACK

4 сезон

9 сезон

Бесстыжие 9 сезон

Все сериалы

все сериалы на PB.wtf

RePack

FAR CRY 5
  

Ненастье / Сезон: 1 / Серии: 1-11 из 11 (Сергей Урсуляк) [2018, Драма, HDTVRip] pb.wtf

Ненастье через торрент pb.wtf

Размер: 5.4 GB | Добавлен: 1 год 11 мес. назад | Торрент скачан:262 раза
Скачать  

15-11-2018 20:51 Ненастье Скачать торрент  

Ненастье Год выпуска: 2018
Страна: Россия
Жанр: Драма
Продолжительность: ~ 00:45:00
Субтитры: отсутствуют

Режиссер: Сергей Урсуляк



В ролях:

Александр Яценко, Александр Горбатов (II), Татьяна Лялина, Сергей Маковецкий, Серафима Красникова, Сослан Фидаров, Антон Филипенко, Евгений Смирнов-Иваницкий, Олег Кассин, Александр Голубев, Олег Байкулов, Тарас Епифанцев, Алексей Дякин, Никита Тезов, Александр Кузнецов (IX), Максим Деричев, Татьяна Сомова, Иван Куколев, Валерий Карпов (III)

Описание:

По роману Алексея Иванова. 90-е. Время больших перемен. Крушение иллюзий. Сломанные судьбы. Несбывшиеся мечты. И любовь... Любовь вопреки всему. Они вернулись в свою страну после Афганистана, но страна стала совсем другой. Они рассчитывают только на себя. Они доверяют только друг другу. В одном из уральских городов совершено дерзкое ограбление! Похищены 140 миллионов рублей! Грабитель – бывший «афганец» Герман Неволин, водитель инкассаторской машины. Что толкнуло его на преступление? Почему он принёс в жертву всё, чем дорожил – дружбу, любовь, и теперь вынужден скрываться в заброшенной деревушке Ненастье?..

Качество: HDTVRip
Формат: AVI

Видео: 720x400 (1.80:1), 25 fps, XviD build 73 ~1500 kbps avg, 0.208 bit/pixel
Аудио: 48.0 kHz, AC3 Dolby Digital, 2/0 (L,R) ch, ~ 192 kbps
скриншот  скриншот  скриншот  скриншот  

General
Complete name : D:\Ненастье.2018 .HDTVip.Files-x\01.Ненастье.2018 .HDTVip.Files-x.avi
Format : AVI
Format/Info : Audio Video Interleave
File size : 555 MiB
Duration : 45 min 41 s
Overall bit rate : 1 699 kb/s
Writing application : VirtualDubMod 1.5.10.3 | www.virtualdub-fr.org || (build 2550/release)
Writing library : VirtualDubMod build 2550/release

Video
ID : 0
Format : MPEG-4 Visual
Format profile : Advanced Simple@L5
Format settings : BVOP1 / Custom Matrix
Format settings, BVOP : 1
Format settings, QPel : No
Format settings, GMC : No warppoints
Format settings, Matrix : Custom
Codec ID : XVID
Codec ID/Hint : XviD
Duration : 45 min 41 s
Bit rate : 1 497 kb/s
Width : 720 pixels
Height : 400 pixels
Display aspect ratio : 16:9
Frame rate : 25.000 FPS
Color space : YUV
Chroma subsampling : 4:2:0
Bit depth : 8 bits
Scan type : Progressive
Compression mode : Lossy
Bits/(Pixel*Frame) : 0.208
Stream size : 489 MiB (88%)
Writing library : XviD 73

Audio
ID : 1
Format : AC-3
Format/Info : Audio Coding 3
Codec ID : 2000
Duration : 45 min 41 s
Bit rate mode : Constant
Bit rate : 192 kb/s
Channel(s) : 2 channels
Channel positions : Front: L R
Sampling rate : 48.0 kHz
Frame rate : 31.250 FPS (1536 SPF)
Bit depth : 16 bits
Compression mode : Lossy
Stream size : 62.8 MiB (11%)
Alignment : Split accross interleaves
Interleave, duration : 40 ms (1.00 video frame)
Interleave, preload duratio : 500 ms
Service kind : Complete Main

pb.wtf



Скачать Ненастье через торрент https://c.radikal.ru/c15/1811/90/132f17d8e4d9.jpg Скачать фильм Ненастье через торрент бесплантно в хорошем качестве Описание: По роману Алексея Иванова. 90-е. Время больших перемен. Крушение иллюзий. Сломанные судьбы. Несбывшиеся мечты. И любовь... Любовь ... 10 10 6
Info! Золотая раздача, скачанное не засчитывается.
Торрент: Зарегистрирован [2018-11-15 20:51] · скачан: 262 раз
Статус: √ проверено
Размер: 5.4 GB
Как cкачать? Как скачать Ненастье через торрент | qTorrent

% Раздел Тема Автор DL S | L
Наши сериалы [ 13.33 GB ] Ненастье / Сезон: 1 / Серии: 1-11 из 11 [2018 HDTVRip 720p] bober100 Скачать
2 | 2
Наши сериалы [ 6.98 GB ] Ненастье / Сезон: 1 / Серии: 1-11 из 11 [2018 HDTVRip-AVC] bober100 Скачать
1 | 0
Наши сериалы [ 24.32 GB ] Ненастье / Сезон: 1 / Серии: 1-11 из 11 [2018 HDTV 1080i] bober100 Скачать
2 | 0
Наши сериалы [ 5.88 GB ] Ненастье / Сезон: 1 / Серии: 1-11 из 11 [2018 SATRip] bober100 Скачать
1 | 0

28-11-2019 20:33  

Отключить всю рекламу на сайте

    Дорогой пользователь! Огромная просьба, поблагодарите релизера, оцените раздачу и оставьте свои комментарий, если Вы скачали Ненастье через торрент бесплатно! Внесите свою лепту в развитие PiratBit!
    Комментировать посты могут только пользователи прошедшие не сложную регистрацию
    Показать сообщения:    

    Ненастье через торрент
    Скачать бесплатно Ненастье
    Ненастье скачать торрент
    Ненастье смотреть онлайн
    Cкачать фильм Ненастье бесплатно
    Ненастье скачать торрент в хорошем качестве
    Ненастье смотреть онлайн бесплатно в хорошем качестве


    Вы не можете начинать темы
    Вы не можете отвечать на сообщения
    Вы не можете редактировать свои сообщения
    Вы не можете удалять свои сообщения
    Вы не можете голосовать в опросах
    Вы не можете прикреплять файлы к сообщениям
    Вы можете скачивать файлы