Ссылка на приватное зеркало всего за 1$. Внимание количество ограничено!!!

OK

1+1

iTunes

мы

OK

1

WEB-DLRip

Джокер

Пифагор

Ведьмак / The Witcher сериал

Лицензия

ПШазам

ОК

Оно 2

iTunes

30
pack

Вам бонус

ВАЖНО

!!Акция!!

Alien_RageХит недели

RePack

Resident Evil 21

ИГРА 18+

pack

RePack

jed

!!Акция!!

Alien_Rage

RePack

fifa19

RePack

Assassins Creed: Odyssey

RePack

NEED FOR SPEED™ PAYBACK

4 сезон

9 сезон

Бесстыжие 9 сезон

Все сериалы

все сериалы на PB.wtf

RePack

FAR CRY 5
  

Великий уравнитель 2 / The Equalizer 2 (Антуан Фукуа) [2018, боевик, триллер, криминал, UHD BDRip 2160p] [SDR] DUB (rus, ukr) + AVO [Дмитрий Есарев] pb.wtf

Великий уравнитель 2 через торрент pb.wtf

Раздают: 1 [ 0 KB/s ]
Размер: 26.32 GB | Добавлен: 1 год 1 мес. назад | Торрент скачан:61 раз
Скачать  

16-11-2018 03:54 Великий уравнитель 2 Скачать торрент  

Великий уравнитель 2 / The Equalizer 2«There is no equal»
Год выпуска: 2018
Страна: США
Жанр: боевик, триллер, криминал
Продолжительность: 02:00:50
Перевод: Дублированный, авторский
Субтитры: Русские (Forced, full), украинские (Full), английские
Режиссер: Антуан Фукуа
В ролях:


Дензел Вашингтон (Robert McCall), Педро Паскаль (Dave York), Эштон Сандерс (Miles Whittaker), Орсон Бин (Sam Rubinstein), Билл Пуллман (Brian Plummer), Мелисса Лео (Susan Plummer), Джонатан Скарф (Resnik), Сакина Джэффри (Fatima), Кази Таугинас (Ari), Гарретт Голден (Kovac), Адам Карст (Turkish Father), Аликан Барлас (Dining Car Porter)
Описание:
Бывший спецагент Роберт Маккол продолжает помогать хорошим, по его мнению, людям и наказывать плохих. ЦРУ считает его погибшим, и только старый друг и бывшая коллега Сьюзан знает его тайну и периодически заходит в гости. Когда на очередном задании в Брюсселе Сьюзан убивают, пытаясь замаскировать это под ограбление, Маккол решат разобраться и отомстить всем причастным.
Рейтинг:

MPAA: R - Лицам до 17 лет обязательно присутствие взрослого
Качество: UHD BDRip 2160p | SDR
Формат: MKV
Видео: HEVC, 29000 Кбит/c, 3840x1600, 23.976 Кадр/с, 10 bit
Аудио #01: 48 kHz, AC3, 5.1, 640 Kbps | Лицензия | RUS |
Аудио #02: 48 kHz, AC3, 5.1, 640 Kbps | Авторское [Дмитрий Есарев] | RUS |
Аудио #03: 48 kHz, AC3, 2.1, 192 Kbps | Дублированное [студія LeDoyen] (UKR)
Аудио #04: 48 kHz, AC3, 5.1, 640 Kbps | Оригинал | ENG |
Навигация по главам: есть

Общее
Уникальный идентификатор : 172000997806313316651112383688742544191 (0x81662FED412637F7B7701DCF97D8233F)
Полное имя : F:\The.Equalizer.2.2018.BDRip.x265.10bit.SDR.Master5.mkv
Формат : Matroska
Версия формата : Version 4
Размер файла : 26,3 Гбайт
Продолжительность : 2 ч. 0 м.
Общий поток : 31,2 Мбит/сек
Название фильма : The.Equalizer.2.2018.BDRip.x265.10bit.SDR.Master5
Дата кодирования : UTC 2018-12-15 14:22:05
Программа кодирования : mkvmerge v7.9.0 ('Birds') 64bit
Библиотека кодирования : libebml v1.3.1 + libmatroska v1.4.2
Обложка : Yes
Attachments : cover_land.jpg / small_cover.jpg / small_cover_land.jpg / cover.jpg

Видео
Идентификатор : 1
Формат : HEVC
Формат/Информация : High Efficiency Video Coding
Профиль формата : Main 10@L5.1@High
Идентификатор кодека : V_MPEGH/ISO/HEVC
Продолжительность : 2 ч. 0 м.
Битрейт : 29,0 Мбит/сек
Ширина : 3840 пикселей
Высота : 1600 пикселей
Соотношение сторон : 2,40:1
Режим частоты кадров : Постоянный
Частота кадров : 23,976 (24000/1001) кадра/сек
Цветовое пространство : YUV
Субдискретизация насыщенности : 4:2:0
Битовая глубина : 10 бит
Бит/(Пиксели*Кадры) : 0.197
Размер потока : 24,5 Гбайт (93%)
Заголовок : The.Equalizer.2.2018.BDRip.x265.10bit.SDR.Master5
Библиотека кодирования : x265 2.9+4-471726d3a046:[Windows][GCC 8.2.0][64 bit] 10bit
Настройки программы : cpuid=1111039 / frame-threads=16 / numa-pools=20 / wpp / no-pmode / no-pme / no-psnr / no-ssim / log-level=2 / input-csp=1 / input-res=3840x1600 / interlace=0 / total-frames=174000 / level-idc=51 / high-tier=1 / uhd-bd=0 / ref=3 / no-allow-non-conformance / repeat-headers / annexb / aud / hrd / info / hash=0 / no-temporal-layers / no-open-gop / min-keyint=1 / keyint=24 / gop-lookahead=0 / bframes=4 / b-adapt=2 / b-pyramid / bframe-bias=0 / rc-lookahead=25 / lookahead-slices=4 / scenecut=40 / radl=0 / no-intra-refresh / ctu=64 / min-cu-size=8 / no-rect / no-amp / max-tu-size=32 / tu-inter-depth=1 / tu-intra-depth=1 / limit-tu=0 / rdoq-level=0 / dynamic-rd=0.00 / no-ssim-rd / signhide / no-tskip / nr-intra=0 / nr-inter=0 / no-constrained-intra / strong-intra-smoothing / max-merge=2 / limit-refs=3 / no-limit-modes / me=1 / subme=2 / merange=57 / temporal-mvp / weightp / no-weightb / no-analyze-src-pics / deblock=0:0 / no-sao / no-sao-non-deblock / rd=3 / no-early-skip / rskip / no-fast-intra / no-tskip-fast / no-cu-lossless / no-b-intra / no-splitrd-skip / rdpenalty=0 / psy-rd=2.00 / psy-rdoq=0.00 / no-rd-refine / no-lossless / cbqpoffs=0 / crqpoffs=0 / rc=crf / crf=16.0 / qcomp=0.60 / qpstep=4 / stats-write=0 / stats-read=0 / vbv-maxrate=160000 / vbv-bufsize=160000 / vbv-init=0.9 / crf-max=0.0 / crf-min=0.0 / ipratio=1.40 / pbratio=1.30 / aq-mode=1 / aq-strength=1.00 / cutree / zone-count=0 / no-strict-cbr / qg-size=32 / no-rc-grain / qpmax=69 / qpmin=0 / no-const-vbv / sar=1 / overscan=0 / videoformat=5 / range=0 / colorprim=2 / transfer=2 / colormatrix=2 / chromaloc=0 / display-window=0 / max-cll=0,0 / min-luma=0 / max-luma=1023 / log2-max-poc-lsb=8 / vui-timing-info / vui-hrd-info / slices=1 / opt-qp-pps / opt-ref-list-length-pps / no-multi-pass-opt-rps / scenecut-bias=0.05 / no-opt-cu-delta-qp / no-aq-motion / no-hdr / no-hdr-opt / no-dhdr10-opt / no-idr-recovery-sei / analysis-reuse-level=5 / scale-factor=0 / refine-intra=0 / refine-inter=0 / refine-mv=0 / no-limit-sao / ctu-info=0 / no-lowpass-dct / refine-mv-type=0 / copy-pic=1 / max-ausize-factor=1.0 / no-dynamic-refine / no-single-sei
Default : Да
Forced : Нет

Аудио #1
Идентификатор : 2
Формат : AC-3
Формат/Информация : Audio Coding 3
Коммерческое название : Dolby Digital
Идентификатор кодека : A_AC3
Продолжительность : 2 ч. 0 м.
Вид битрейта : Постоянный
Битрейт : 640 Кбит/сек
Каналы : 6 каналов
Channel layout : L R C LFE Ls Rs
Частота : 48,0 КГц
Частота кадров : 31,250 кадров/сек (1536 SPF)
Битовая глубина : 16 бит
Метод сжатия : С потерями
Размер потока : 554 Мбайт (2%)
Заголовок : Dub License
Язык : Russian
ServiceKind/String : Complete Main
Default : Да
Forced : Да

Аудио #2
Идентификатор : 3
Формат : AC-3
Формат/Информация : Audio Coding 3
Коммерческое название : Dolby Digital
Идентификатор кодека : A_AC3
Продолжительность : 2 ч. 0 м.
Вид битрейта : Постоянный
Битрейт : 640 Кбит/сек
Каналы : 6 каналов
Channel layout : L R C LFE Ls Rs
Частота : 48,0 КГц
Частота кадров : 31,250 кадров/сек (1536 SPF)
Битовая глубина : 16 бит
Метод сжатия : С потерями
Размер потока : 554 Мбайт (2%)
Заголовок : AVO Yesarev
Язык : Russian
ServiceKind/String : Complete Main
Default : Нет
Forced : Нет

Аудио #3
Идентификатор : 4
Формат : AC-3
Формат/Информация : Audio Coding 3
Коммерческое название : Dolby Digital
Идентификатор кодека : A_AC3
Продолжительность : 2 ч. 0 м.
Вид битрейта : Постоянный
Битрейт : 192 Кбит/сек
Каналы : 2 канала
Channel layout : L R
Частота : 48,0 КГц
Частота кадров : 31,250 кадров/сек (1536 SPF)
Битовая глубина : 16 бит
Метод сжатия : С потерями
Размер потока : 166 Мбайт (1%)
Заголовок : Dub Ledoyen
Язык : Ukrainian
ServiceKind/String : Complete Main
Default : Нет
Forced : Нет

Аудио #4
Идентификатор : 5
Формат : AC-3
Формат/Информация : Audio Coding 3
Коммерческое название : Dolby Digital
Идентификатор кодека : A_AC3
Продолжительность : 2 ч. 0 м.
Вид битрейта : Постоянный
Битрейт : 640 Кбит/сек
Каналы : 6 каналов
Channel layout : L R C LFE Ls Rs
Частота : 48,0 КГц
Частота кадров : 31,250 кадров/сек (1536 SPF)
Битовая глубина : 16 бит
Метод сжатия : С потерями
Задержка видео : 8 мс.
Размер потока : 554 Мбайт (2%)
Язык : English
ServiceKind/String : Complete Main
Default : Нет
Forced : Нет

Текст #1
Идентификатор : 6
Формат : UTF-8
Идентификатор кодека : S_TEXT/UTF8
Идентификатор кодека/Информация : UTF-8 Plain Text
Продолжительность : 1 ч. 59 м.
Битрейт : 1 бит/сек
ElementCount : 43
Размер потока : 1,60 Кбайт (0%)
Заголовок : Forced
Язык : Russian
Default : Да
Forced : Нет

Текст #2
Идентификатор : 7
Формат : UTF-8
Идентификатор кодека : S_TEXT/UTF8
Идентификатор кодека/Информация : UTF-8 Plain Text
Продолжительность : 1 ч. 59 м.
Битрейт : 57 бит/сек
ElementCount : 1062
Размер потока : 50,3 Кбайт (0%)
Заголовок : Full
Язык : Russian
Default : Нет
Forced : Нет

Текст #3
Идентификатор : 8
Формат : UTF-8
Идентификатор кодека : S_TEXT/UTF8
Идентификатор кодека/Информация : UTF-8 Plain Text
Продолжительность : 1 ч. 59 м.
Битрейт : 55 бит/сек
ElementCount : 1058
Размер потока : 48,7 Кбайт (0%)
Язык : Ukrainian
Default : Нет
Forced : Нет

Текст #4
Идентификатор : 9
Формат : UTF-8
Идентификатор кодека : S_TEXT/UTF8
Идентификатор кодека/Информация : UTF-8 Plain Text
Продолжительность : 1 ч. 52 м.
Битрейт : 40 бит/сек
ElementCount : 1283
Размер потока : 33,6 Кбайт (0%)
Язык : English
Default : Нет
Forced : Нет

Меню
00:00:00.000 : en:Chapter 1
00:01:31.758 : en:Chapter 2
00:01:58.577 : en:Chapter 3
00:04:54.127 : en:Chapter 4
00:05:33.041 : en:Chapter 5
00:05:51.893 : en:Chapter 6
00:06:24.092 : en:Chapter 7
00:06:55.498 : en:Chapter 8
00:07:06.635 : en:Chapter 9
00:07:35.622 : en:Chapter 10
00:07:53.765 : en:Chapter 11
00:08:09.781 : en:Chapter 12
00:08:21.793 : en:Chapter 13
00:08:38.935 : en:Chapter 14
00:09:08.840 : en:Chapter 15
00:09:44.375 : en:Chapter 16
00:11:32.233 : en:Chapter 17
00:11:41.075 : en:Chapter 18
00:12:05.725 : en:Chapter 19
00:13:03.783 : en:Chapter 20
00:15:24.674 : en:Chapter 21
00:15:58.291 : en:Chapter 22
00:16:19.186 : en:Chapter 23
00:16:54.347 : en:Chapter 24
00:17:58.327 : en:Chapter 25
00:19:33.547 : en:Chapter 26
00:20:02.993 : en:Chapter 27
00:20:55.963 : en:Chapter 28
00:23:04.633 : en:Chapter 29
00:23:50.179 : en:Chapter 30
00:23:59.688 : en:Chapter 31
00:24:13.994 : en:Chapter 32
00:24:20.709 : en:Chapter 33
00:25:47.588 : en:Chapter 34
00:28:22.617 : en:Chapter 35
00:28:39.426 : en:Chapter 36
00:31:49.908 : en:Chapter 37
00:32:04.589 : en:Chapter 38
00:32:13.640 : en:Chapter 39
00:34:11.174 : en:Chapter 40
00:35:14.571 : en:Chapter 41
00:36:09.834 : en:Chapter 42
01:31:39.244 : en:Chapter 43
01:32:20.660 : en:Chapter 44
01:32:41.014 : en:Chapter 45
01:33:19.969 : en:Chapter 46
01:34:56.524 : en:Chapter 47
01:41:27.832 : en:Chapter 48
01:41:36.382 : en:Chapter 49
01:42:24.722 : en:Chapter 50
01:46:59.496 : en:Chapter 51
pb.wtf



Скачать Великий уравнитель 2 через торрент https://a.radikal.ru/a43/1811/26/a9750f818fc8.png Скачать фильм Великий уравнитель 2 через торрент бесплантно в хорошем качестве Описание: Бывший спецагент Роберт Маккол продолжает помогать хорошим, по его мнению, людям и наказывать плохих. ЦРУ считает его погибшим, и ... 9.8 10 8
Info! Золотая раздача, скачанное не засчитывается.
Торрент: Зарегистрирован [2018-12-16 03:02] · скачан: 61 раз
Статус: √ проверено
Размер: 26.32 GB
Как cкачать? Как скачать Великий уравнитель 2 через торрент | qTorrent

% Раздел Тема Автор DL S | L
Фильмы (DVD фильмы) [ 7.74 GB ] Великий уравнитель 2 / The Equalizer 2 [2018 DVD9 ] + [AVO] killermax2013 Скачать
1 | 0
Фильмы [HD 720p, 1080p] (Хороший звук DUB, MVO) [ 12.25 GB ] Великий уравнитель 2 / The Equalizer 2 [2018 BDRip 1080p] DUB + AVO [Д. Есарев] sheker187 Скачать
1 | 0
Ultra HD (UHD: 2K, 4K, 8K) — видео сверхвысокой чёткости [ 14.37 GB ] Великий уравнитель 2 / The Equalizer 2 [2018 UHD BDRip 2160p] DUB + AVO [Дмитрий Есарев] sheker187 Скачать
2 | 0
Фильмы 2018 [DVDrip, WEB-DLRip, HDrip] (DUB, MVO) [ 2.98 GB ] Великий уравнитель 2 / The Equalizer 2 [2018 BDRip-AVC] AVO - ExKinoRay Enigma2010 Скачать
3 | 0
Фильмы (Blu-ray, BD-Remux, HDDVD) [ 24.55 GB ] Великий уравнитель 2 / The Equalizer 2 [2018 BDRemux 1080p] DUB + AVO [Д. Есарев] sheker187 Скачать
1 | 0
Фильмы [HD 720p, 1080p] (Хороший звук DUB, MVO) [ 7.18 GB ] Великий уравнитель 2 / The Equalizer 2 [2018 BDRip 720p] DUB + AVO [Д. Есарев] sheker187 Скачать
3 | 0
Ultra HD (UHD: 2K, 4K, 8K) — видео сверхвысокой чёткости [ 47.35 GB ] Великий уравнитель 2 / The Equalizer 2 [2018 UHD BDRemux 2160p] DUB + AVO [Д. Есарев] sheker187 Скачать
1 | 0

28-11-2019 20:33  

Отключить всю рекламу на сайте

16-12-2018 03:03 Великий уравнитель 2 Скачать торрент  

Релиз обновлён - Замена на лицензию.pb.wtf



    Дорогой пользователь! Огромная просьба, поблагодарите релизера, оцените раздачу и оставьте свои комментарий, если Вы скачали Великий уравнитель 2 через торрент бесплатно! Внесите свою лепту в развитие PiratBit!
    Комментировать посты могут только пользователи прошедшие не сложную регистрацию
    Показать сообщения:    

    Великий уравнитель 2 через торрент
    Скачать бесплатно Великий уравнитель 2
    Великий уравнитель 2 скачать торрент
    Великий уравнитель 2 смотреть онлайн
    Cкачать фильм Великий уравнитель 2 бесплатно
    Великий уравнитель 2 скачать торрент в хорошем качестве
    Великий уравнитель 2 смотреть онлайн бесплатно в хорошем качестве


    Вы не можете начинать темы
    Вы не можете отвечать на сообщения
    Вы не можете редактировать свои сообщения
    Вы не можете удалять свои сообщения
    Вы не можете голосовать в опросах
    Вы не можете прикреплять файлы к сообщениям
    Вы можете скачивать файлы