Ссылка на приватное зеркало всего за 1$. Внимание количество ограничено!!!

OK

1+1

iTunes

мы

OK

1

WEB-DLRip

Джокер

Пифагор

Ведьмак / The Witcher сериал

iTunes

ПШазам

ОК

Оно 2

iTunes

30
pack

Вам бонус

ВАЖНО

!!Акция!!

Alien_RageХит недели

RePack

Resident Evil 21

ИГРА 18+

pack

RePack

jed

RePack

fifa19

RePack

Assassins Creed: Odyssey

RePack

NEED FOR SPEED™ PAYBACK

4 сезон

9 сезон

Бесстыжие 9 сезон

Все сериалы

все сериалы на PB.wtf

RePack

FAR CRY 5
  

Грехи отцов / Generational Sins (Спенсер Т. Фольмар) [2017 г., Драма, WEB-DLRip, Любительский (многоголосый)(Синема УС)] pb.wtf

Грехи отцов через торрент pb.wtf

Размер: 1.34 GB | Добавлен: 1 год 2 мес. назад | Торрент скачан:33 раза
Скачать  

16-11-2018 03:57 Грехи отцов Скачать торрент  

Грехи отцов / Generational Sins
Год выпуска: 2017
Страна: США
Жанр: Драма
Продолжительность: 01:29:52
Перевод: Любительский (многоголосый)(Синема УС)
Субтитры: Отсутствуют

Режиссер: Спенсер Т. Фольмар

rating

В ролях: Дэниэл МакФерсон, Дакс Спангли, Барретт Доннер, Билл Фармер, Лиса Фольмар, Кристен Йезек, Николас Кобле, Том Фольмар, Марк Макдауэлл, Нолан Хайт

Описание: На смертном одре мать берёт с Дрю клятву, что он вернётся вместе с младшим братом в городок, где они родились, и примирится с родным отцом, пагубная страсть которого к спиртному разрушила их семью много лет назад.

Доп. информация: Присутствуют вставки текстовой рекламы

Качество: WEB-DLRip
Формат: AVI
Видео кодек: XviD
Аудио кодек: AC3
Видео: XviD, 720x304, ~1733 Kbps
Аудио#1: AC-3, 2 ch, 384 Kbps
скриншот   скриншот   скриншот   скриншот  

Общее
Полное имя : C:\_\Грехи отцов\Generational Sins 2017 WEB-DLRip.avi
Формат : AVI
Формат/Информация : Audio Video Interleave
Профиль формата : OpenDML
Размер файла : 1,34 Гбайт
Продолжительность : 1 ч. 29 м.
Общий поток : 2130 Кбит/сек

Видео
Идентификатор : 0
Формат : MPEG-4 Visual
Профиль формата : Advanced Simple@L5
Параметр BVOP формата : 2
Параметр QPel формата : Нет
Параметр GMC формата : Без точки перехода
Параметр матрицы формата : Выборочная
Идентификатор кодека : XVID
Идентификатор кодека/Подсказка : XviD
Продолжительность : 1 ч. 29 м.
Битрейт : 1733 Кбит/сек
Ширина : 720 пикселей
Высота : 304 пикселя
Соотношение сторон : 2,35:1
Частота кадров : 23,976 (24000/1001) кадра/сек
Цветовое пространство : YUV
Субдискретизация насыщенности : 4:2:0
Битовая глубина : 8 бит
Тип развёртки : Прогрессивная
Метод сжатия : С потерями
Бит/(Пиксели*Кадры) : 0.330
Размер потока : 1,09 Гбайт (81%)
Библиотека кодирования : XviD 1.2.1 (UTC 2008-12-04)

Аудио
Идентификатор : 1
Формат : AC-3
Формат/Информация : Audio Coding 3
Расширение режима : CM (complete main)
Параметр Endianness формата : Big
Идентификатор кодека : 2000
Продолжительность : 1 ч. 29 м.
Вид битрейта : Постоянный
Битрейт : 384 Кбит/сек
Каналы : 2 канала
Расположение каналов : Front: L R
Частота : 48,0 КГц
Частота кадров : 31,250 кадров/сек (1536 spf)
Метод сжатия : С потерями
Размер потока : 247 Мбайт (18%)
Выравнивание : Соединение по промежуткам
Продолжительность промежутка : 32 мс. (0,77 видеокадр)

pb.wtf



Скачать Грехи отцов через торрент http://pic1.kartinco.top/images/11/4h9g2.jpg Скачать фильм Грехи отцов через торрент бесплантно в хорошем качестве Описание: На смертном одре мать берёт с Дрю клятву, что он вернётся вместе с младшим братом в городок, где они родились, и примирится с ... 5 10 1
Торрент: Зарегистрирован [2018-11-16 03:57] · скачан: 33 раз
Статус: T временная
Размер: 1.34 GB
Как cкачать? Как скачать Грехи отцов через торрент | qTorrent

28-11-2019 20:33  

Отключить всю рекламу на сайте

    Дорогой пользователь! Огромная просьба, поблагодарите релизера, оцените раздачу и оставьте свои комментарий, если Вы скачали Грехи отцов через торрент бесплатно! Внесите свою лепту в развитие PiratBit!
    Комментировать посты могут только пользователи прошедшие не сложную регистрацию
    Показать сообщения:    

    Грехи отцов через торрент
    Скачать бесплатно Грехи отцов
    Грехи отцов скачать торрент
    Грехи отцов смотреть онлайн
    Cкачать фильм Грехи отцов бесплатно
    Грехи отцов скачать торрент в хорошем качестве
    Грехи отцов смотреть онлайн бесплатно в хорошем качестве


    Вы не можете начинать темы
    Вы не можете отвечать на сообщения
    Вы не можете редактировать свои сообщения
    Вы не можете удалять свои сообщения
    Вы не можете голосовать в опросах
    Вы не можете прикреплять файлы к сообщениям
    Вы можете скачивать файлы