Ссылка на приватное зеркало всего за 1$. Внимание количество ограничено!!!

OK

1+1

iTunes

мы

OK

1

WEB-DLRip

Джокер

Пифагор

Ведьмак / The Witcher сериал

iTunes

ПШазам

ОК

Оно 2

iTunes

30
pack

Вам бонус

ВАЖНО

!!Акция!!

Alien_RageХит недели

RePack

Resident Evil 21

ИГРА 18+

pack

RePack

jed

RePack

fifa19

RePack

Assassins Creed: Odyssey

RePack

NEED FOR SPEED™ PAYBACK

4 сезон

9 сезон

Бесстыжие 9 сезон

Все сериалы

все сериалы на PB.wtf

RePack

FAR CRY 5
  

В отношениях / In a Relationship (Сэм Бойд) [2018 г., Драма, комедия, WEB-DLRip, Любительский (многоголосый)(Синема УС)] pb.wtf

В отношениях через торрент pb.wtf

Размер: 1.31 GB | Добавлен: 1 год 2 мес. назад | Торрент скачан:28 раз
Скачать  

16-11-2018 04:33 В отношениях Скачать торрент  

В отношениях / In a Relationship
Год выпуска: 2018
Страна: США,Мексика
Жанр: Драма, комедия
Продолжительность: 01:31:32
Перевод: Любительский (многоголосый)(Синема УС)
Субтитры: Отсутствуют

Режиссер: Сэм Бойд

rating

В ролях: Эмма Робертс, Майкл Ангарано, Дри Хемингуэй, Патрик Гибсон, Джей Эллис, Грета Ли, Джанет Монтгомери, Мелора Уолтерс, Гэйл Ранкин, Андре Хайланд

Описание: Оуэн и Хэлли, которые долго были вместе, рассстаются (или не совсем?), а их лучшие друзья, Мэтт и Уилла, наоборот, только начинают встречаться. Смешная и чувственная хроника одного лета в жизни двух пар.

Доп. информация: Присутствуют вставки текстовой рекламы

Качество: WEB-DLRip
Формат: AVI
Видео кодек: XviD
Аудио кодек: AC3
Видео: XviD, 720x384, ~1655 Kbps
Аудио#1: AC-3, 2 ch, 384 Kbps
скриншот   скриншот   скриншот   скриншот  

Общее
Полное имя : C:\_\В отношениях\In a Relationship 2018 WEB-DLRip.avi
Формат : AVI
Формат/Информация : Audio Video Interleave
Профиль формата : OpenDML
Размер файла : 1,31 Гбайт
Продолжительность : 1 ч. 31 м.
Общий поток : 2051 Кбит/сек

Видео
Идентификатор : 0
Формат : MPEG-4 Visual
Профиль формата : Advanced Simple@L5
Параметр BVOP формата : 2
Параметр QPel формата : Нет
Параметр GMC формата : Без точки перехода
Параметр матрицы формата : Выборочная
Идентификатор кодека : XVID
Идентификатор кодека/Подсказка : XviD
Продолжительность : 1 ч. 31 м.
Битрейт : 1655 Кбит/сек
Ширина : 720 пикселей
Высота : 384 пикселя
Соотношение сторон : 1,85:1
Частота кадров : 23,976 (24000/1001) кадра/сек
Цветовое пространство : YUV
Субдискретизация насыщенности : 4:2:0
Битовая глубина : 8 бит
Тип развёртки : Прогрессивная
Метод сжатия : С потерями
Бит/(Пиксели*Кадры) : 0.250
Размер потока : 1,06 Гбайт (81%)
Библиотека кодирования : XviD 1.2.1 (UTC 2008-12-04)

Аудио
Идентификатор : 1
Формат : AC-3
Формат/Информация : Audio Coding 3
Расширение режима : CM (complete main)
Параметр Endianness формата : Big
Идентификатор кодека : 2000
Продолжительность : 1 ч. 31 м.
Вид битрейта : Постоянный
Битрейт : 384 Кбит/сек
Каналы : 2 канала
Расположение каналов : Front: L R
Частота : 48,0 КГц
Частота кадров : 31,250 кадров/сек (1536 spf)
Метод сжатия : С потерями
Размер потока : 251 Мбайт (19%)
Выравнивание : Соединение по промежуткам
Продолжительность промежутка : 32 мс. (0,77 видеокадр)

pb.wtf



Скачать В отношениях через торрент http://pic1.kartinco.top/images/11/joqm6.jpg Скачать фильм В отношениях через торрент бесплантно в хорошем качестве Описание: Оуэн и Хэлли, которые долго были вместе, рассстаются (или не совсем?), а их лучшие друзья, Мэтт и Уилла, наоборот, только ... 10 10 2
Торрент: Зарегистрирован [2018-11-16 04:33] · скачан: 28 раз
Статус: T временная
Размер: 1.31 GB
Как cкачать? Как скачать В отношениях через торрент | qTorrent

% Раздел Тема Автор DL S | L
Фильмы (WEB-DL 720p, 1080p) [ 6.65 GB ] Статус: всё сложно / В отношениях / In a Relationship [2018 WEB-DL 1080p] bober100 Скачать
3 | 0
T Фильмы (мультфильмы) cо спонсором показа (Новинки AVI/MKV) [ 3.71 GB ] Статус: всё сложно / В отношениях / In a Relationship [2018 WEB-DL 720p] DUB [Line] bober100 Скачать
2 | 0
Фильмы 2018 [DVDrip, WEB-DLRip, HDrip] (DUB, MVO) [ 1.45 GB ] Статус: всё сложно / В отношениях / In a Relationship [2018 WEB-DLRip] bober100 Скачать
2 | 0

28-11-2019 20:33  

Отключить всю рекламу на сайте

    Дорогой пользователь! Огромная просьба, поблагодарите релизера, оцените раздачу и оставьте свои комментарий, если Вы скачали В отношениях через торрент бесплатно! Внесите свою лепту в развитие PiratBit!
    Комментировать посты могут только пользователи прошедшие не сложную регистрацию
    Показать сообщения:    

    В отношениях через торрент
    Скачать бесплатно В отношениях
    В отношениях скачать торрент
    В отношениях смотреть онлайн
    Cкачать фильм В отношениях бесплатно
    В отношениях скачать торрент в хорошем качестве
    В отношениях смотреть онлайн бесплатно в хорошем качестве


    Вы не можете начинать темы
    Вы не можете отвечать на сообщения
    Вы не можете редактировать свои сообщения
    Вы не можете удалять свои сообщения
    Вы не можете голосовать в опросах
    Вы не можете прикреплять файлы к сообщениям
    Вы можете скачивать файлы