Ссылка на приватное зеркало всего за 1$. Внимание количество ограничено!!!

OK

1+1

iTunes

мы

OK

1

WEB-DLRip

Джокер

Пифагор

Ведьмак / The Witcher сериал

iTunes

ПШазам

ОК

Оно 2

iTunes

30
pack

Вам бонус

ВАЖНО

!!Акция!!

Alien_RageХит недели

RePack

Resident Evil 21

ИГРА 18+

pack

RePack

jed

RePack

fifa19

RePack

Assassins Creed: Odyssey

RePack

NEED FOR SPEED™ PAYBACK

4 сезон

9 сезон

Бесстыжие 9 сезон

Все сериалы

все сериалы на PB.wtf

RePack

FAR CRY 5
  

Армия и Куп / Army & Coop (Деннис Хефтер) [2018 г., Комедия, WEB-DLRip, Любительский (многоголосый)(Синема УС)] pb.wtf

Армия и Куп через торрент pb.wtf

Размер: 1.31 GB | Добавлен: 1 год 2 мес. назад | Торрент скачан:22 раза
Скачать  

16-11-2018 05:12 Армия и Куп Скачать торрент  

Армия и Куп / Army & Coop
Год выпуска: 2018
Страна: США
Жанр: Комедия
Продолжительность: 01:24:39
Перевод: Любительский (многоголосый)(Синема УС)
Субтитры: Отсутствуют

Режиссер: Деннис Хефтер

rating

В ролях: Хит С. Хейн, Кали Джун, Бен Хилцер, Гэри Дж. Нойгер, Гэри Миллер, Тревор Уилсон, Элла Мэдисон, Карен Томас, Уолтер Анарук

Описание: Майкл "Армия" Армстронг - ветеран национальной хоккейной лиги был отстранен за выходку в прямом эфире. Любовь всей его жизни Джен, бросила его. Армия борется со своими пороками и пытается измениться. Ведь в конечном счете он должен противостоять главному противнику - самому себе.

Доп. информация: Присутствуют вставки текстовой рекламы

Качество: WEB-DLRip
Формат: AVI
Видео кодек: XviD
Аудио кодек: AC3
Видео: XviD, 720x384, ~1823 Kbps
Аудио#1: AC-3, 2 ch, 384 Kbps
скриншот   скриншот   скриншот   скриншот  

Общее
Полное имя : C:\_\Армия и Куп\Army and Coop 2018 WEB-DLRip.avi
Формат : AVI
Формат/Информация : Audio Video Interleave
Профиль формата : OpenDML
Размер файла : 1,31 Гбайт
Продолжительность : 1 ч. 24 м.
Общий поток : 2220 Кбит/сек

Видео
Идентификатор : 0
Формат : MPEG-4 Visual
Профиль формата : Advanced Simple@L5
Параметр BVOP формата : 2
Параметр QPel формата : Нет
Параметр GMC формата : Без точки перехода
Параметр матрицы формата : Выборочная
Идентификатор кодека : XVID
Идентификатор кодека/Подсказка : XviD
Продолжительность : 1 ч. 24 м.
Битрейт : 1823 Кбит/сек
Ширина : 720 пикселей
Высота : 384 пикселя
Соотношение сторон : 1,85:1
Частота кадров : 23,976 (24000/1001) кадра/сек
Цветовое пространство : YUV
Субдискретизация насыщенности : 4:2:0
Битовая глубина : 8 бит
Тип развёртки : Прогрессивная
Метод сжатия : С потерями
Бит/(Пиксели*Кадры) : 0.275
Размер потока : 1,08 Гбайт (82%)
Библиотека кодирования : XviD 1.2.1 (UTC 2008-12-04)

Аудио
Идентификатор : 1
Формат : AC-3
Формат/Информация : Audio Coding 3
Расширение режима : CM (complete main)
Параметр Endianness формата : Big
Идентификатор кодека : 2000
Продолжительность : 1 ч. 24 м.
Вид битрейта : Постоянный
Битрейт : 384 Кбит/сек
Каналы : 2 канала
Расположение каналов : Front: L R
Частота : 48,0 КГц
Частота кадров : 31,250 кадров/сек (1536 spf)
Метод сжатия : С потерями
Размер потока : 233 Мбайт (17%)
Выравнивание : Соединение по промежуткам
Продолжительность промежутка : 32 мс. (0,77 видеокадр)

pb.wtf



Скачать Армия и Куп через торрент http://pic1.kartinco.top/images/11/wgbf6.jpg Скачать фильм Армия и Куп через торрент бесплантно в хорошем качестве Описание: Майкл "Армия" Армстронг - ветеран национальной хоккейной лиги был отстранен за выходку в прямом эфире. Любовь всей его жизни ... 10 10 1
Торрент: Зарегистрирован [2018-11-16 05:12] · скачан: 22 раз
Статус: T временная
Размер: 1.31 GB
Как cкачать? Как скачать Армия и Куп через торрент | qTorrent

28-11-2019 20:33  

Отключить всю рекламу на сайте

    Дорогой пользователь! Огромная просьба, поблагодарите релизера, оцените раздачу и оставьте свои комментарий, если Вы скачали Армия и Куп через торрент бесплатно! Внесите свою лепту в развитие PiratBit!
    Комментировать посты могут только пользователи прошедшие не сложную регистрацию
    Показать сообщения:    

    Армия и Куп через торрент
    Скачать бесплатно Армия и Куп
    Армия и Куп скачать торрент
    Армия и Куп смотреть онлайн
    Cкачать фильм Армия и Куп бесплатно
    Армия и Куп скачать торрент в хорошем качестве
    Армия и Куп смотреть онлайн бесплатно в хорошем качестве


    Вы не можете начинать темы
    Вы не можете отвечать на сообщения
    Вы не можете редактировать свои сообщения
    Вы не можете удалять свои сообщения
    Вы не можете голосовать в опросах
    Вы не можете прикреплять файлы к сообщениям
    Вы можете скачивать файлы