Ссылка на приватное зеркало всего за 1$. Внимание количество ограничено!!!

iTunes

iTunes

iTunes

1

iTunes

iTunes

iTunes

iTunes

iTunes

30
pack

Новость дня

ВАЖНО

!!Акция!!

Alien_RageХит недели

RePack

Resident Evil 21

ИГРА 18+

pack

RePack

jed

!!Акция!!

Alien_Rage

RePack

fifa19

RePack

Assassins Creed: Odyssey

RePack

NEED FOR SPEED™ PAYBACK

4 сезон

9 сезон

Бесстыжие 9 сезон

Все сериалы

все сериалы на PB.wtf

RePack

FAR CRY 5
  

На районе (Ольга Зуева) [2018, Драма, WEB-DLRip-AVC] [iTunes] pb.wtf

На районе через торрент pb.wtf

Раздают: 2 [ 0 KB/s ]
Размер: 1.44 GB | Добавлен: 1 год 6 мес. назад | Торрент скачан:1023 раза
Скачать  

16-11-2018 08:30 На районе Скачать торрент  

На районе Год выпуска: 2018
Страна: Россия
Жанр: Драма
Продолжительность: 01:31:26
Перевод: Не требуется | iTunes
Субтитры: отсутствуют

Режиссер: Ольга Зуева

rating

В ролях:

Данила Козловский, Илья Маланин, Елена Оболенская, Ангелина Стречина, Ольга Зуева, Андрей Амшинский, Эдгар Гизатуллин, Александр Мизев, Владимир Хацкевич, Владимир Афанасьев

Описание:

Вова и его лучший друг Киса зарабатывают деньги, занимаясь нелегальной деятельностью. Их жизнь проходит на волне веселья, в погоне за острыми ощущениями и кратковременными удовольствиями, пока очередной заказ не приводит их дружбу к главному испытанию, заставив каждого ответить на вопрос: кто ты?

Качество: WEB-DLRip-AVC
Формат: MKV

Видео: 1024x430 (2.40:1), 25,000 fps, x264 ~1 869 kbps avg, 0.170 bit/pixel
Аудио: 48 kHz, AC3 Dolby Digital, 3/2 (L,C,R,l,r) + LFE ch, ~384.00 kbps avg | RUS (iTunes)
скриншот  скриншот  скриншот  скриншот  скриншот  

Общее
Уникальный идентификатор : 63668377871860021221322210167225787719 (0x2FE615633B2ECE0E8C768145D8F72547)
Полное имя : F:OlLanDGroupNa.Raijone.2018.WEB-DLRip(AVC).OlLanDGroup.mkv
Формат : Matroska
Версия формата : Version 4 / Version 2
Размер файла : 1,44 Гбайт
Продолжительность : 1 ч. 31 м.
Общий поток : 2249 Кбит/сек
Название фильма : Na.Raijone.2018 #TorpedoUK#
Дата кодирования : UTC 2018-11-16 00:02:44
Программа кодирования : mkvmerge v25.0.0 ('Prog Noir') 64-bit
Библиотека кодирования : libebml v1.3.6 + libmatroska v1.4.9

Видео
Идентификатор : 1
Формат : AVC
Формат/Информация : Advanced Video Codec
Профиль формата : High@L4.1
Параметр CABAC формата : Да
Параметр ReFrames формата : 10 кадров
Идентификатор кодека : V_MPEG4/ISO/AVC
Продолжительность : 1 ч. 31 м.
Битрейт : 1869 Кбит/сек
Ширина : 1024 пикселя
Высота : 430 пикселей
Соотношение сторон : 2,40:1
Режим частоты кадров : Постоянный
Частота кадров : 25,000 кадров/сек
Цветовое пространство : YUV
Субдискретизация насыщенности : 4:2:0
Битовая глубина : 8 бит
Тип развёртки : Прогрессивная
Бит/(Пиксели*Кадры) : 0.170
Размер потока : 1,19 Гбайт (83%)
Библиотека кодирования : x264 core 146 r2538 121396c
Настройки программы : cabac=1 / ref=10 / deblock=1:-2:-3 / analyse=0x3:0x113 / me=umh / subme=10 / psy=1 / psy_rd=0.97:0.05 / mixed_ref=1 / me_range=48 / chroma_me=1 / trellis=2 / 8x8dct=1 / cqm=0 / deadzone=21,11 / fast_pskip=1 / chroma_qp_offset=-3 / threads=6 / lookahead_threads=1 / sliced_threads=0 / nr=0 / decimate=1 / interlaced=0 / bluray_compat=0 / constrained_intra=0 / bframes=11 / b_pyramid=2 / b_adapt=2 / b_bias=0 / direct=3 / weightb=1 / open_gop=0 / weightp=2 / keyint=250 / keyint_min=25 / scenecut=40 / intra_refresh=0 / rc_lookahead=40 / rc=2pass / mbtree=0 / bitrate=1869 / ratetol=1.0 / qcomp=0.60 / qpmin=0 / qpmax=69 / qpstep=4 / cplxblur=20.0 / qblur=0.5 / vbv_maxrate=50000 / vbv_bufsize=62500 / nal_hrd=none / filler=0 / ip_ratio=1.40 / pb_ratio=1.30 / aq=1:1.00
Язык : English
Default : Да
Forced : Нет

Аудио
Идентификатор : 2
Формат : AC-3
Формат/Информация : Audio Coding 3
Расширение режима : CM (complete main)
Параметр Endianness формата : Big
Идентификатор кодека : A_AC3
Продолжительность : 1 ч. 31 м.
Вид битрейта : Постоянный
Битрейт : 384 Кбит/сек
Каналы : 6 каналов
Расположение каналов : Front: L C R, Side: L R, LFE
Частота : 48,0 КГц
Частота кадров : 31,250 кадров/сек (1536 spf)
Битовая глубина : 16 бит
Метод сжатия : С потерями
Размер потока : 251 Мбайт (17%)
Заголовок : [Original]
Язык : Russian
Default : Да
Forced : Нет

Меню
00:00:00.000 : en:Глава 1
00:05:28.720 : en:Глава 2
00:13:16.920 : en:Глава 3
00:18:23.320 : en:Глава 4
00:23:30.200 : en:Глава 5
00:30:55.280 : en:Глава 6
00:37:49.320 : en:Глава 7
00:41:40.160 : en:Глава 8
00:46:28.800 : en:Глава 9
00:50:46.319 : en:Глава 10
00:57:40.239 : en:Глава 11
01:05:04.359 : en:Глава 12
01:11:51.199 : en:Глава 13
01:17:52.359 : en:Глава 14
01:22:54.839 : en:Глава 15

pb.wtf



Скачать На районе через торрент https://b.radikal.ru/b20/1810/44/e7b56a3a03b3.jpg Скачать фильм На районе через торрент бесплантно в хорошем качестве Описание: Вова и его лучший друг Киса зарабатывают деньги, занимаясь нелегальной деятельностью. Их жизнь проходит на волне веселья, в ... 9.5 10 18
Info! Золотая раздача, скачанное не засчитывается.
Торрент: Зарегистрирован [2018-11-16 08:30] · скачан: 1 023 раз
Статус: √ проверено
Размер: 1.44 GB
Как cкачать? Как скачать На районе через торрент | qTorrent

% Раздел Тема Автор DL S | L
Наши сериалы [ 10.35 GB ] Адмиралы района / Сезон: 1 / Серии: 1-8 из 16 [2020 WEBRip 720p] bober100 Скачать
3 | 0
Наши сериалы [ 6.15 GB ] Адмиралы района / Сезон: 1 / Серии: 1-8 из 16 [2020 WEBRip-AVC] bober100 Скачать
3 | 0
Наши сериалы [ 5.05 GB ] Адмиралы района / Сезон: 1 / Серии: 1-8 из 16 [2020 WEBRip] bober100 Скачать
2 | 0
Наши сериалы [ 17.33 GB ] Адмиралы района / Сезон: 1 / Серии: 1-8 из 16 [2020 WEBRip 1080p] bober100 Скачать
6 | 0
* Наши сериалы [ 8.27 GB ] Адмиралы района / Серии: 1-14 из 16 [2020 SATRip-AVC] aleksan55 Скачать
1 | 8
Наши сериалы [ 7.7 GB ] Адмиралы района / Сезон: 1 / Серии: 1-12 из 16 [2020 SATRip] bober100 Скачать
6 | 27
Фильмы (HD 720p, 1080p) (48-60 fps) [ 12.99 GB ] Район №9 / District 9 [2009 Новая Зеландия ЮАР BDRip 1080p / 60 FPS ] Tiberiumsun69 Скачать
1 | 0

28-11-2019 20:33  

Отключить всю рекламу на сайте

    Дорогой пользователь! Огромная просьба, поблагодарите релизера, оцените раздачу и оставьте свои комментарий, если Вы скачали На районе через торрент бесплатно! Внесите свою лепту в развитие PiratBit!
    Комментировать посты могут только пользователи прошедшие не сложную регистрацию
    Показать сообщения:    

    На районе через торрент
    Скачать бесплатно На районе
    На районе скачать торрент
    На районе смотреть онлайн
    Cкачать фильм На районе бесплатно
    На районе скачать торрент в хорошем качестве
    На районе смотреть онлайн бесплатно в хорошем качестве


    Вы не можете начинать темы
    Вы не можете отвечать на сообщения
    Вы не можете редактировать свои сообщения
    Вы не можете удалять свои сообщения
    Вы не можете голосовать в опросах
    Вы не можете прикреплять файлы к сообщениям
    Вы можете скачивать файлы