1 сезон

3 сезон

iTunes

1

Line

MVO

iTunes

13

1 сезон

RePack

30

Deluxe

pack

Лицензия

ВАЖНО

ИГРА 18+

pack

RePack

MK11

RePack

jed

RePack

fifa19

RePack

RDR2

RePack

NEED FOR SPEED™ PAYBACK

4 сезон

9 сезон

Бесстыжие 9 сезон

Все сериалы

все сериалы на PB.wtf

RePack

FAR CRY 5

Anonymous, добрый день, мы катастрофически не успеваем собрать деньги на оплату серверов, помогите нам пожалуйста 5,10,15р., для нас важна любая помощь . В качестве благодарности мы отключим Вам всю рекламу на сайте (укажите свой ник в строку Ваше имя)!

×
  
Magnet ссылка

Армагеддон (Михаил Израилев) [1962, СССР, драма, VHSRip от AVP Studio] pb.wtf

Армагеддон через торрент pb.wtf

Размер: 1.09 GB | Добавлен: 2 года 8 мес. назад | Торрент скачан:9 раз
Скачать  

16-11-2018 09:21 Армагеддон Скачать торрент  

Армагеддон
Страна: СССР
Производство: Молдова-филм

Жанр: драма
Год выпуска: 1962
Продолжительность: 01:33:21

Перевод: Не требуется
Cубтитры: нет
Оригинальная аудиодорожка: русский

Режиссер: Михаил Израилев

В ролях:
Изольда Извицкая, Эдуард Бредун, Домника Дариенко, Наташа Репина, Владимир Цесляк, Владимир Пицек, Мария Гулинская, Светлана Швайко, Владимир Рудин, Лаврентий Масоха, Виктор Уральский, Трифан Грузин, Михаил Туманишвили, Ион Унгуряну, Галина Чернова, Таня Ярошенко, Миша Вознян, Миша Гамбарян, Алла Казанская...
Об актёрах подробней

Описание:
Юная Наталица (Изольза Извицкая) под влиянием матери попадает в секту иеговистов. И только преданным друзьям удается освободить девушку от влияния секты.

Исходник: VHS
Качество видео: VHSRip
Формат видео: AVI

Видео: 704x528 (4:3), 25,000 кадров/сек, XviD ~ 1470 kbps avg, 0.158 bit/pixel
Аудио: 48 kHz, Dolby Digital AC3 2.0, 192 kbps

Раздача от:
Общее
Полное имя : Armageddon.1962.VHSRip_[New-team]_by_AVP_Studio.avi
Формат : AVI
Формат/Информация : Audio Video Interleave
Размер файла : 1,09 Гбайт
Продолжительность : 1 ч. 33 м.
Общий поток : 1672 Кбит/сек
Программа кодирования : VirtualDubMod 1.5.10.2 (build 2542/release)
Библиотека кодирования : VirtualDubMod build 2542/release

Видео
Идентификатор : 0
Формат : MPEG-4 Visual
Профиль формата : Advanced Simple@L5
Настройки формата : BVOP1 / Custom Matrix
Параметр BVOP формата : 1
Параметр QPel формата : Нет
Параметр GMC формата : Без точки перехода
Параметр матрицы формата : Выборочная
Идентификатор кодека : XVID
Идентификатор кодека/Подсказка : XviD
Продолжительность : 1 ч. 33 м.
Битрейт : 1470 Кбит/сек
Ширина : 704 пикселя
Высота : 528 пикселей
Соотношение сторон : 4:3
Частота кадров : 25,000 кадров/сек
Цветовое пространство : YUV
Субдискретизация насыщенности : 4:2:0
Битовая глубина : 8 бит
Тип развёртки : Прогрессивная
Метод сжатия : С потерями
Бит/(Пиксели*Кадры) : 0.158
Размер потока : 981 Мбайт (88%)
Библиотека кодирования : XviD 73

Аудио
Идентификатор : 1
Формат : AC-3
Формат/Информация : Audio Coding 3
Коммерческое название : Dolby Digital
Идентификатор кодека : 2000
Продолжительность : 1 ч. 33 м.
Вид битрейта : Постоянный
Битрейт : 192 Кбит/сек
Каналы : 2 канала
Channel layout : L R
Частота : 48,0 КГц
Частота кадров : 31,250 кадров/сек (1536 SPF)
Битовая глубина : 16 бит
Метод сжатия : С потерями
Размер потока : 128 Мбайт (11%)
Выравнивание : Соединение по промежуткам
Продолжительность промежутка : 40 мс. (1,00 видеокадр)
Время предзагрузки промежутка : 512 мс
pb.wtf



Скачать Армагеддон через торрент http://picplus.ru/img/1811/16/06472aaf.png Скачать фильм Армагеддон через торрент бесплантно в хорошем качестве Описание:Юная Наталица (Изольза Извицкая) под влиянием матери попадает в секту иеговистов. И только преданным друзьям удается освободить ... 10 10 1
Info! Золотая раздача, скачанное не засчитывается.
Торрент: Зарегистрирован [2018-11-16 09:21] · скачан: 9 раз
Статус: √ проверено
Размер: 1.09 GB
Как cкачать? Как скачать Армагеддон через торрент | UTorrent

% Раздел Тема Автор DL S | L
Фильмы [HD 720p, 1080p] (Хороший звук DUB, MVO) [ 6.92 GB ] Армагеддон / Armageddon [1998 BDRip 1080p] + 5X[MVO] + [DVO] + 3x[AVO] killermax2013 Скачать
8 | 0
Фантастика [ 619 MB ] Серж Винтеркей - Рубеж | Армагеддон [Сергей Уделов 2020 128 kbps MP3] urapavel Скачать
2 | 0
Металл (mp3) [ 125 MB ] Ария - Армагеддон [Перезагрузка] 2020 / MP3 / 320 kbps / Rock Heavy-Metal bober100 Скачать
1 | 0
Металл (lossless) [ 398 MB ] Ария - Армагеддон [Перезагрузка] 2020 / FLAC / lossless / Rock Heavy-Metal bober100 Скачать
2 | 0
Фильмы до 2000 г. [ 1.45 GB ] Армагеддон / Armageddon [1998 HDRip] DOMINION Скачать
3 | 0
Фантастика [ 792 MB ] Сергеев Станислав - Солдаты армагеддона 2. Призрак Родины [Пожилой Ксеноморф 2019 128 kbps MP3] bober100 Скачать
1 | 0
Кино СССР [ 1.09 GB ] Армагеддон [1962 СССР VHSRip-AVC от AVP Studio] AVP Studio Скачать
1 | 0

28-11-2019 20:33  

Отключить всю рекламу на сайте


    Дорогой пользователь! Огромная просьба, поблагодарите релизера, оцените раздачу и оставьте свои комментарий, если Вы скачали Армагеддон через торрент бесплатно! Внесите свою лепту в развитие PiratBit!
    Комментировать посты могут только пользователи прошедшие не сложную регистрацию
    Показать сообщения:    

    Армагеддон через торрент
    Скачать бесплатно Армагеддон
    Армагеддон скачать торрент
    Армагеддон смотреть онлайн
    Cкачать фильм Армагеддон бесплатно
    Армагеддон скачать торрент в хорошем качестве
    Армагеддон смотреть онлайн бесплатно в хорошем качестве


    Вы не можете начинать темы
    Вы не можете отвечать на сообщения
    Вы не можете редактировать свои сообщения
    Вы не можете удалять свои сообщения
    Вы не можете голосовать в опросах
    Вы не можете прикреплять файлы к сообщениям
    Вы можете скачивать файлы