новый адрес
Ссылка на приватное зеркало всего за 1$. Внимание количество ограничено!!!

iTunes

1+1

iTunes

мы

iTunes

1

iTunes

Чернобыль

iTunes

Ральф против интернета

Лицензия

ПШазам

Лицензия

Оно 2

Лицензия

30
pack

Вам бонус

ВАЖНО

!!Акция!!

Alien_RageХит недели

RePack

Resident Evil 21

ИГРА 18+

pack

RePack

jed

!!Акция!!

Alien_Rage

RePack

fifa19

RePack

Assassins Creed: Odyssey

RePack

NEED FOR SPEED™ PAYBACK

3 сезон

9 сезон

Бесстыжие 9 сезон

Все сериалы

все сериалы на PB.wtf

RePack

FAR CRY 5
Ребята, катастрофически не хватает 1900р. для оплаты серверов за Октябрь (всвязи с блокировками трафик упал в 3 раза), 1-2р., выручайте.
  

Собибор (Константин Хабенский) [2018, Драма, военный, BDRip-AVC] [iTunes] pb.wtf

Собибор через торрент pb.wtf

Раздают: 3 [ 0 KB/s ]
Размер: 1.41 GB | Добавлен: 1 год назад | Торрент скачан:153 раза
Скачать  

16-11-2018 09:35 Собибор Скачать торрент  

Собибор
Год выпуска: 2018
Страна: Россия
Жанр: Драма, военный
Продолжительность: 01:52:57
Перевод: Не требуется | iTunes
Субтитры: отсутствуют

Режиссер: Константин Хабенский

rating

В ролях:

Константин Хабенский, Кристофер Ламберт, Фелисе Янкелль, Дайнюс Казлаускас, Сергей Годин, Роман Агеев, Гела Месхи, Михалина Ольшанска, Мария Кожевникова, Вольфганг Черны

Описание:

История сопротивления человеческого духа бездушной машине уничтожения. В октябре 1943 года заключённые лагеря Собибор во главе с лейтенантом Красной Армии Александром Печерским поднимают восстание — единственное успешное восстание в нацистском лагере смерти.

Качество: BDRip-AVC
Формат: MKV

Видео: 720x302 (2.40:1), 25,000 fps, x264 ~1 402 kbps avg, 0.258 bit/pixel
Аудио: 48 kHz, AC3 Dolby Digital, 3/2 (L,C,R,l,r) + LFE ch, ~384.00 kbps avg | RUS (iTunes)
скриншот  скриншот  скриншот  скриншот  скриншот  

Общее
Уникальный идентификатор : 249055127623920532549600370358268841064 (0xBB5E45D6D66311F1F80CB740803DCC68)
Полное имя : F:OlLanDGroupSobibor.2018.BDRip_(AVC).OlLanDGroup.mkv
Формат : Matroska
Версия формата : Version 4 / Version 2
Размер файла : 1,41 Гбайт
Продолжительность : 1 ч. 52 м.
Общий поток : 1783 Кбит/сек
Название фильма : Sobibor.2018 #TorpedoUK#
Дата кодирования : UTC 2018-11-16 07:22:03
Программа кодирования : mkvmerge v25.0.0 ('Prog Noir') 64-bit
Библиотека кодирования : libebml v1.3.6 + libmatroska v1.4.9

Видео
Идентификатор : 1
Формат : AVC
Формат/Информация : Advanced Video Codec
Профиль формата : High@L4.1
Параметр CABAC формата : Да
Параметр ReFrames формата : 10 кадров
Идентификатор кодека : V_MPEG4/ISO/AVC
Продолжительность : 1 ч. 52 м.
Битрейт : 1402 Кбит/сек
Ширина : 720 пикселей
Высота : 302 пикселя
Соотношение сторон : 2,40:1
Режим частоты кадров : Постоянный
Частота кадров : 25,000 кадров/сек
Цветовое пространство : YUV
Субдискретизация насыщенности : 4:2:0
Битовая глубина : 8 бит
Тип развёртки : Прогрессивная
Бит/(Пиксели*Кадры) : 0.258
Размер потока : 1,10 Гбайт (78%)
Библиотека кодирования : x264 core 146 r2538 121396c
Настройки программы : cabac=1 / ref=10 / deblock=1:-2:-3 / analyse=0x3:0x113 / me=umh / subme=11 / psy=1 / psy_rd=0.95:0.07 / mixed_ref=1 / me_range=48 / chroma_me=1 / trellis=2 / 8x8dct=1 / cqm=0 / deadzone=21,11 / fast_pskip=1 / chroma_qp_offset=-3 / threads=6 / lookahead_threads=1 / sliced_threads=0 / nr=0 / decimate=1 / interlaced=0 / bluray_compat=0 / constrained_intra=0 / bframes=11 / b_pyramid=2 / b_adapt=2 / b_bias=0 / direct=3 / weightb=1 / open_gop=0 / weightp=2 / keyint=250 / keyint_min=25 / scenecut=40 / intra_refresh=0 / rc_lookahead=40 / rc=2pass / mbtree=0 / bitrate=1402 / ratetol=1.0 / qcomp=0.60 / qpmin=0 / qpmax=69 / qpstep=4 / cplxblur=20.0 / qblur=0.5 / vbv_maxrate=50000 / vbv_bufsize=62500 / nal_hrd=none / filler=0 / ip_ratio=1.40 / pb_ratio=1.30 / aq=1:1.00
Default : Да
Forced : Нет

Аудио
Идентификатор : 2
Формат : AC-3
Формат/Информация : Audio Coding 3
Расширение режима : CM (complete main)
Параметр Endianness формата : Big
Идентификатор кодека : A_AC3
Продолжительность : 1 ч. 52 м.
Вид битрейта : Постоянный
Битрейт : 384 Кбит/сек
Каналы : 6 каналов
Расположение каналов : Front: L C R, Side: L R, LFE
Частота : 48,0 КГц
Частота кадров : 31,250 кадров/сек (1536 spf)
Битовая глубина : 16 бит
Метод сжатия : С потерями
Размер потока : 310 Мбайт (22%)
Заголовок : [iTunes]
Язык : Russian
Default : Да
Forced : Нет

Меню
00:00:00.000 : en:Chapter 1
00:02:30.080 : en:Chapter 2
00:13:42.720 : en:Chapter 3
00:17:18.200 : en:Chapter 4
00:22:47.080 : en:Chapter 5
00:26:04.240 : en:Chapter 6
00:29:38.120 : en:Chapter 7
00:38:21.920 : en:Chapter 8
00:51:43.800 : en:Chapter 9
01:06:52.680 : en:Chapter 10
01:18:38.560 : en:Chapter 11
01:22:31.760 : en:Chapter 12
01:26:45.400 : en:Chapter 13
01:31:03.360 : en:Chapter 14
01:37:30.760 : en:Chapter 15
01:47:03.520 : en:Chapter 16

pb.wtf



Скачать Собибор через торрент http://i97.fastpic.ru/big/2018/1116/eb/8d961407b427707ec3b70d0e296c4deb.png Скачать фильм Собибор через торрент бесплантно в хорошем качестве Описание: История сопротивления человеческого духа бездушной машине уничтожения. В октябре 1943 года заключённые лагеря Собибор во главе с ... 10 10 5
Info! Золотая раздача, скачанное не засчитывается.
Торрент: Зарегистрирован [2018-11-16 09:35] · скачан: 153 раз
Статус: √ проверено
Размер: 1.41 GB
Как cкачать? Как скачать Собибор через торрент | qTorrent

% Раздел Тема Автор DL S | L
Фильмы с авторской озвучкой [ 17.74 GB ] Побег из Собибора / Escape from Sobibor [1987 военный история BDRip 1080p by msltel] AVO msltel Скачать
1 | 0
Фильмы с авторской озвучкой [ 6.65 GB ] Побег из Собибора / Escape from Sobibor [1987 военный история BDRip 720p by msltel] AVO msltel Скачать
1 | 0
Наши новые фильмы 2018-2019 [ 1.46 GB ] Собибор [2018 военный BDRip] [Rus Transfer] [ BD RUS] bober100 Скачать
1 | 0
Наши фильмы (HD, WEB-DL 720p, 1080p) [ 9.21 GB ] Собибор [2018 военный BDRip 1080p] [Rus Transfer] [] bober100 Скачать
5 | 0
Наши фильмы (Blu-ray, BD-Remux, HDDVD) [ 27.48 GB ] Собибор [2018 военный BD Remux 1080p] [Rus Transfer] [] bober100 Скачать
1 | 0
Наши новые фильмы 2018-2019 [ 1.61 GB ] Собибор [2018 военный BDRip-AVC] [Rus Transfer] [ BD RUS] - ExKinoRay Enigma2010 Скачать
1 | 0
Наши новые фильмы 2018-2019 [ 2.05 GB ] Собибор [2018 военный BDRip] [Rus Transfer] [ BD RUS] bober100 Скачать
1 | 0

16-11-2018 09:54 Собибор Скачать торрент  

оценку понизили, теперь адекватная pb.wtf



    Дорогой пользователь! Огромная просьба, поблагодарите релизера, оцените раздачу и оставьте свои комментарий, если Вы скачали Собибор через торрент бесплатно! Внесите свою лепту в развитие PiratBit!
    Комментировать посты могут только пользователи прошедшие не сложную регистрацию
    Показать сообщения:    

    Собибор через торрент
    Скачать бесплатно Собибор
    Собибор скачать торрент
    Собибор смотреть онлайн
    Cкачать фильм Собибор бесплатно
    Собибор скачать торрент в хорошем качестве
    Собибор смотреть онлайн бесплатно в хорошем качестве


    Вы не можете начинать темы
    Вы не можете отвечать на сообщения
    Вы не можете редактировать свои сообщения
    Вы не можете удалять свои сообщения
    Вы не можете голосовать в опросах
    Вы не можете прикреплять файлы к сообщениям
    Вы можете скачивать файлы