Ссылка на приватное зеркало всего за 1$. Внимание количество ограничено!!!

OK

1+1

iTunes

мы

OK

1

WEB-DLRip

Джокер

Пифагор

Ведьмак / The Witcher сериал

iTunes

ПШазам

ОК

Оно 2

iTunes

30
pack

Вам бонус

ВАЖНО

!!Акция!!

Alien_RageХит недели

RePack

Resident Evil 21

ИГРА 18+

pack

RePack

jed

RePack

fifa19

RePack

Assassins Creed: Odyssey

RePack

NEED FOR SPEED™ PAYBACK

4 сезон

9 сезон

Бесстыжие 9 сезон

Все сериалы

все сериалы на PB.wtf

RePack

FAR CRY 5
  

Месть полицейского-самурая / Revenge of the Samurai Cop (Грегори Хатанака) [2017, боевик, WEB-DL 720p] MVO ["Синема УС"] pb.wtf

Месть полицейского-самурая через торрент pb.wtf

Размер: 3.29 GB | Добавлен: 1 год 2 мес. назад | Торрент скачан:16 раз
Скачать  

16-11-2018 11:05 Месть полицейского-самурая Скачать торрент  

Месть полицейского-самурая / Revenge of the Samurai CopГод выпуска: 2017
Страна: США
Жанр: боевик
Продолжительность: 01:29:42
Перевод: Любительский (многоголосый) | "Синема УС"
Субтитры: отсутствуют

Режиссер: Грегори Хатанака

rating

В ролях:

Мэтью Каредас, Марк Фрейзер, Бай Лин, Крэнстон Комуро, Кэйден Кросс, Шэйн Райан, Томми Вайсо, Мелисса Мур, Лекси Белль, Зоя Монро

Описание:

Прошло 25 лет, и детективу Фрэнку Вашингтону приходится снова объединиться с давно пропавшим напарником Джо Маршалом, чтобы расследовать серию заказных убийств членов якудза.

Качество: WEB-DL 720p
Формат: MKV

Видео: h.264, 4 872 kb/s, 1280x544
Аудио#1: Русский, (AC3, 2 ch, 384 Кбит/с)
скриншот  скриншот  скриншот  

Общее
Уникальный идентификатор : 207380045789231804856136915417682638426 (0x9C03F1AA564BB11F979BCF18471F765A)
Полное имя : D:\Revenge.of.the.Samurai.Cop.2O17.P.WEB-DL.72Op_KOSHARA.mkv
Формат : Matroska
Версия формата : Version 2
Размер файла : 3,29 Гбайт
Продолжительность : 1 ч. 29 м.
Режим общего битрейта : Переменный
Общий поток : 5258 Кбит/сек
Дата кодирования : UTC 2018-11-15 15:54:57
Программа кодирования : mkvmerge v8.3.0 ('Over the Horizon') 64bit
Библиотека кодирования : libebml v1.3.1 + libmatroska v1.4.2

Видео
Идентификатор : 1
Формат : AVC
Формат/Информация : Advanced Video Codec
Профиль формата : High@L4.1
Параметр CABAC формата : Да
Параметр RefFrames формата : 4 кадра
Идентификатор кодека : V_MPEG4/ISO/AVC
Продолжительность : 1 ч. 29 м.
Вид битрейта : Переменный
Битрейт : 4872 Кбит/сек
Максимальный битрейт : 5500 Кбит/сек
Ширина : 1280 пикселей
Высота : 544 пикселя
Соотношение сторон : 2,35:1
Режим частоты кадров : Постоянный
Частота кадров : 23,976 (24000/1001) кадра/сек
Стандарт вещания : Component
Цветовое пространство : YUV
Субдискретизация насыщенности : 4:2:0
Битовая глубина : 8 бит
Тип развёртки : Прогрессивная
Бит/(Пиксели*Кадры) : 0.286
Размер потока : 2,99 Гбайт (91%)
Default : Да
Forced : Нет
Цветовой диапазон : Limited
Основные цвета : BT.709
Характеристики трансфера : BT.709
Коэффициенты матрицы : BT.709

Аудио
Идентификатор : 2
Формат : AC-3
Формат/Информация : Audio Coding 3
Расширение режима : CM (complete main)
Параметр Endianness формата : Big
Идентификатор кодека : A_AC3
Продолжительность : 1 ч. 29 м.
Вид битрейта : Постоянный
Битрейт : 384 Кбит/сек
Каналы : 2 канала
Расположение каналов : Front: L R
Частота : 48,0 КГц
Частота кадров : 31,250 кадров/сек (1536 spf)
Метод сжатия : С потерями
Размер потока : 246 Мбайт (7%)
Default : Да
Forced : Нет

pb.wtf



Скачать Месть полицейского-самурая через торрент https://b.radikal.ru/b16/1811/a9/a6e7a61d2b93.jpg Скачать фильм Месть полицейского-самурая через торрент бесплантно в хорошем качестве Описание: Прошло 25 лет, и детективу Фрэнку Вашингтону приходится снова объединиться с давно пропавшим напарником Джо Маршалом, чтобы ... 10 10 2
Торрент: Зарегистрирован [2018-11-16 11:05] · скачан: 16 раз
Статус: T временная
Размер: 3.29 GB
Как cкачать? Как скачать Месть полицейского-самурая через торрент | qTorrent

% Раздел Тема Автор DL S | L
T Фильмы (мультфильмы) cо спонсором показа (Новинки AVI/MKV) [ 1.37 GB ] Месть полицейского-самурая / Revenge of the Samurai Cop [2017 WEB-DLRip] MVO ["Синема УС"] bober100 Скачать
1 | 0

28-11-2019 20:33  

Отключить всю рекламу на сайте

    Дорогой пользователь! Огромная просьба, поблагодарите релизера, оцените раздачу и оставьте свои комментарий, если Вы скачали Месть полицейского-самурая через торрент бесплатно! Внесите свою лепту в развитие PiratBit!
    Комментировать посты могут только пользователи прошедшие не сложную регистрацию
    Показать сообщения:    

    Месть полицейского-самурая через торрент
    Скачать бесплатно Месть полицейского-самурая
    Месть полицейского-самурая скачать торрент
    Месть полицейского-самурая смотреть онлайн
    Cкачать фильм Месть полицейского-самурая бесплатно
    Месть полицейского-самурая скачать торрент в хорошем качестве
    Месть полицейского-самурая смотреть онлайн бесплатно в хорошем качестве


    Вы не можете начинать темы
    Вы не можете отвечать на сообщения
    Вы не можете редактировать свои сообщения
    Вы не можете удалять свои сообщения
    Вы не можете голосовать в опросах
    Вы не можете прикреплять файлы к сообщениям
    Вы можете скачивать файлы