Ссылка на приватное зеркало всего за 1$. Внимание количество ограничено!!!

OK

1+1

iTunes

мы

OK

1

WEB-DLRip

Джокер

Пифагор

Ведьмак / The Witcher сериал

iTunes

ПШазам

ОК

Оно 2

iTunes

30
pack

Вам бонус

ВАЖНО

!!Акция!!

Alien_RageХит недели

RePack

Resident Evil 21

ИГРА 18+

pack

RePack

jed

RePack

fifa19

RePack

Assassins Creed: Odyssey

RePack

NEED FOR SPEED™ PAYBACK

4 сезон

9 сезон

Бесстыжие 9 сезон

Все сериалы

все сериалы на PB.wtf

RePack

FAR CRY 5
  

Лассо / Lasso (Ивэн Сесил) [2018, Ужасы, триллер, WEB-DL 720p] MVO ["Синема УС"] pb.wtf

Лассо через торрент pb.wtf

Размер: 3.73 GB | Добавлен: 1 год 2 мес. назад | Торрент скачан:14 раз
Скачать  

16-11-2018 11:19 Лассо Скачать торрент  

Лассо / LassoГод выпуска: 2018
Страна: США
Жанр: Ужасы, триллер
Продолжительность: 01:39:49
Перевод: Любительский (многоголосый) | "Синема УС"
Субтитры: отсутствуют

Режиссер: Ивэн Сесил

rating

В ролях:

Шон Патрик Флэнери, Линдси Морган, Эндрю Джейкобс, Карен Грассл, Томас Кокениас, Хизер Миньон, Бенедита Перейра, Трэвис Росс, Морган Бенуа, Тим Лайчик

Описание:

Туристическая группа пожилых людей приезжает на родео в американскую глубинку и подвергается нападению местных ковбоев, ополоумевших от употребления ветеринарных стероидов.

Качество: WEB-DL 720p
Формат: MKV

Видео: h.264, 4 965 kb/s, 1280x532
Аудио#1: Русский, (AC3, 2 ch, 384 Кбит/с)
скриншот  скриншот  скриншот  

Общее
Уникальный идентификатор : 222968394016688527987386224527303792204 (0xA7BE26923C213F4F806260CAA368564C)
Полное имя : D:\Lasso.2018.P.WEB-DL.72Op_KOSHARA.mkv
Формат : Matroska
Версия формата : Version 2
Размер файла : 3,73 Гбайт
Продолжительность : 1 ч. 39 м.
Режим общего битрейта : Переменный
Общий поток : 5351 Кбит/сек
Дата кодирования : UTC 2018-11-15 15:37:34
Программа кодирования : mkvmerge v8.3.0 ('Over the Horizon') 64bit
Библиотека кодирования : libebml v1.3.1 + libmatroska v1.4.2

Видео
Идентификатор : 1
Формат : AVC
Формат/Информация : Advanced Video Codec
Профиль формата : High@L4.1
Параметр CABAC формата : Да
Параметр RefFrames формата : 4 кадра
Идентификатор кодека : V_MPEG4/ISO/AVC
Продолжительность : 1 ч. 39 м.
Вид битрейта : Переменный
Битрейт : 4965 Кбит/сек
Максимальный битрейт : 5500 Кбит/сек
Ширина : 1280 пикселей
Высота : 532 пикселя
Соотношение сторон : 2,40:1
Режим частоты кадров : Постоянный
Частота кадров : 23,976 (24000/1001) кадра/сек
Стандарт вещания : Component
Цветовое пространство : YUV
Субдискретизация насыщенности : 4:2:0
Битовая глубина : 8 бит
Тип развёртки : Прогрессивная
Бит/(Пиксели*Кадры) : 0.298
Размер потока : 3,39 Гбайт (91%)
Default : Да
Forced : Нет
Цветовой диапазон : Limited
Основные цвета : BT.709
Характеристики трансфера : BT.709
Коэффициенты матрицы : BT.709

Аудио
Идентификатор : 2
Формат : AC-3
Формат/Информация : Audio Coding 3
Расширение режима : CM (complete main)
Параметр Endianness формата : Big
Идентификатор кодека : A_AC3
Продолжительность : 1 ч. 39 м.
Вид битрейта : Постоянный
Битрейт : 384 Кбит/сек
Каналы : 2 канала
Расположение каналов : Front: L R
Частота : 48,0 КГц
Частота кадров : 31,250 кадров/сек (1536 spf)
Метод сжатия : С потерями
Размер потока : 274 Мбайт (7%)
Default : Да
Forced : Нет

pb.wtf



Скачать Лассо через торрент https://d.radikal.ru/d33/1811/4b/bd080ce71a34.jpg Скачать фильм Лассо через торрент бесплантно в хорошем качестве Описание: Туристическая группа пожилых людей приезжает на родео в американскую глубинку и подвергается нападению местных ковбоев, ... 10 10 3
Торрент: Зарегистрирован [2018-11-16 11:19] · скачан: 14 раз
Статус: T временная
Размер: 3.73 GB
Как cкачать? Как скачать Лассо через торрент | qTorrent

% Раздел Тема Автор DL S | L
T Фильмы (WEB-DL 720p, 1080p) [ 3.63 GB ] Лассо / Lasso [2018 WEB-DL 1080p] DVO [HiWay Grope] sokol_ok Скачать
2 | 0
T Фильмы 2019-2020 (Звук TS, Cam, VO, DVO) [ 1.51 GB ] Лассо / Lasso [2018 WEB-DLRip-AVC] DVO [HiWay Grope] sokol_ok Скачать
1 | 0
T Фильмы (мультфильмы) cо спонсором показа (Новинки AVI/MKV) [ 1.37 GB ] Лассо / Lasso [2018 WEB-DLRip] MVO ["Синема УС"] bober100 Скачать
1 | 0

28-11-2019 20:33  

Отключить всю рекламу на сайте

25-11-2018 20:55 Лассо Скачать торрент  

Такое Г... Просто ппц. "Синима УС" находит иногда норм фильм, но это полный шлак...pb.wtf



    Дорогой пользователь! Огромная просьба, поблагодарите релизера, оцените раздачу и оставьте свои комментарий, если Вы скачали Лассо через торрент бесплатно! Внесите свою лепту в развитие PiratBit!
    Комментировать посты могут только пользователи прошедшие не сложную регистрацию
    Показать сообщения:    

    Лассо через торрент
    Скачать бесплатно Лассо
    Лассо скачать торрент
    Лассо смотреть онлайн
    Cкачать фильм Лассо бесплатно
    Лассо скачать торрент в хорошем качестве
    Лассо смотреть онлайн бесплатно в хорошем качестве


    Вы не можете начинать темы
    Вы не можете отвечать на сообщения
    Вы не можете редактировать свои сообщения
    Вы не можете удалять свои сообщения
    Вы не можете голосовать в опросах
    Вы не можете прикреплять файлы к сообщениям
    Вы можете скачивать файлы