Ссылка на приватное зеркало всего за 1$. Внимание количество ограничено!!!

OK

1+1

iTunes

мы

OK

1

WEB-DLRip

Джокер

Пифагор

Ведьмак / The Witcher сериал

iTunes

ПШазам

ОК

Оно 2

iTunes

30
pack

Вам бонус

ВАЖНО

!!Акция!!

Alien_RageХит недели

RePack

Resident Evil 21

ИГРА 18+

pack

RePack

jed

RePack

fifa19

RePack

Assassins Creed: Odyssey

RePack

NEED FOR SPEED™ PAYBACK

4 сезон

9 сезон

Бесстыжие 9 сезон

Все сериалы

все сериалы на PB.wtf

RePack

FAR CRY 5
  

Пока бывшая не разлучит нас / Til Ex Do Us Part (Дэнни Дж. Бойл) [2018, Триллер, HDTVRip 720p] MVO ["Синема УС"] pb.wtf

Пока бывшая не разлучит нас через торрент pb.wtf

Размер: 2.97 GB | Добавлен: 1 год 2 мес. назад | Торрент скачан:13 раз
Скачать  

16-11-2018 11:35 Пока бывшая не разлучит нас Скачать торрент  

Пока бывшая не разлучит нас / Til Ex Do Us PartГод выпуска: 2018
Страна: Канада
Жанр: Триллер
Продолжительность: 01:27:10
Перевод: Любительский (многоголосый) | "Синема УС"
Субтитры: отсутствуют

Режиссер: Дэнни Дж. Бойл

rating

В ролях:

Келли Салливан, Анна Ван Хуфт, Дэн Пэйн, Алиша Ньютон, Шэрон Тейлор, Шон Калинг, Ли Шан Гибсон, Арпад Балог, Лианна Броди, Шэрон Крэндолл

Описание:

Как только расставание наконец подошло к концу, и Кайл с Софией вновь решили жить вместе, Софию обвиняют в нападении на «подружку» мужа, с которой он спал всего раз. На самом же деле, Клэр сама несколько раз ранит себя, чтобы подставить Софию и отбить Кайла. Когда ее уловки разоблачают, Клэр решается на прямое нападение на соперницу.

Качество: HDTVRip 720p
Формат: MKV

Видео: h.264, 4 485 kb/s, 1280x720
Аудио#1: Русский, (AC3, 2 ch, 384 Кбит/с)
скриншот  скриншот  скриншот  

Общее
Уникальный идентификатор : 178587565448083307111237456279174249196 (0x865AB6C8A6437864878484185319FAEC)
Полное имя : D:\Til.Ex.Do.Us.Part.2018.P.HDTV.72Op_KOSHARA.mkv
Формат : Matroska
Версия формата : Version 2
Размер файла : 2,97 Гбайт
Продолжительность : 1 ч. 27 м.
Режим общего битрейта : Переменный
Общий поток : 4871 Кбит/сек
Дата кодирования : UTC 2018-11-15 13:16:09
Программа кодирования : mkvmerge v8.3.0 ('Over the Horizon') 64bit
Библиотека кодирования : libebml v1.3.1 + libmatroska v1.4.2

Видео
Идентификатор : 1
Формат : AVC
Формат/Информация : Advanced Video Codec
Профиль формата : High@L4.1
Параметр CABAC формата : Да
Параметр RefFrames формата : 4 кадра
Идентификатор кодека : V_MPEG4/ISO/AVC
Продолжительность : 1 ч. 27 м.
Вид битрейта : Переменный
Битрейт : 4485 Кбит/сек
Максимальный битрейт : 5000 Кбит/сек
Ширина : 1280 пикселей
Высота : 720 пикселей
Соотношение сторон : 16:9
Режим частоты кадров : Постоянный
Частота кадров : 23,976 (24000/1001) кадра/сек
Стандарт вещания : Component
Цветовое пространство : YUV
Субдискретизация насыщенности : 4:2:0
Битовая глубина : 8 бит
Тип развёртки : Прогрессивная
Бит/(Пиксели*Кадры) : 0.199
Размер потока : 2,67 Гбайт (90%)
Default : Да
Forced : Нет
Цветовой диапазон : Limited
Основные цвета : BT.709
Характеристики трансфера : BT.709
Коэффициенты матрицы : BT.709

Аудио
Идентификатор : 2
Формат : AC-3
Формат/Информация : Audio Coding 3
Расширение режима : CM (complete main)
Параметр Endianness формата : Big
Идентификатор кодека : A_AC3
Продолжительность : 1 ч. 27 м.
Вид битрейта : Постоянный
Битрейт : 384 Кбит/сек
Каналы : 2 канала
Расположение каналов : Front: L R
Частота : 48,0 КГц
Частота кадров : 31,250 кадров/сек (1536 spf)
Метод сжатия : С потерями
Размер потока : 239 Мбайт (8%)
Default : Да
Forced : Нет

pb.wtf



Скачать Пока бывшая не разлучит нас через торрент https://d.radikal.ru/d19/1811/f6/16630863b48d.jpg Скачать фильм Пока бывшая не разлучит нас через торрент бесплантно в хорошем качестве Описание: Как только расставание наконец подошло к концу, и Кайл с Софией вновь решили жить вместе, Софию обвиняют в нападении на ... 10 10 2
Торрент: Зарегистрирован [2018-11-16 11:35] · скачан: 13 раз
Статус: T временная
Размер: 2.97 GB
Как cкачать? Как скачать Пока бывшая не разлучит нас через торрент | qTorrent

% Раздел Тема Автор DL S | L
T Фильмы (мультфильмы) cо спонсором показа (Новинки AVI/MKV) [ 1.37 GB ] Пока бывшая не разлучит нас / Til Ex Do Us Part [2018 HDTVRip] MVO ["Синема УС"] bober100 Скачать
1 | 0

28-11-2019 20:33  

Отключить всю рекламу на сайте

    Дорогой пользователь! Огромная просьба, поблагодарите релизера, оцените раздачу и оставьте свои комментарий, если Вы скачали Пока бывшая не разлучит нас через торрент бесплатно! Внесите свою лепту в развитие PiratBit!
    Комментировать посты могут только пользователи прошедшие не сложную регистрацию
    Показать сообщения:    

    Пока бывшая не разлучит нас через торрент
    Скачать бесплатно Пока бывшая не разлучит нас
    Пока бывшая не разлучит нас скачать торрент
    Пока бывшая не разлучит нас смотреть онлайн
    Cкачать фильм Пока бывшая не разлучит нас бесплатно
    Пока бывшая не разлучит нас скачать торрент в хорошем качестве
    Пока бывшая не разлучит нас смотреть онлайн бесплатно в хорошем качестве


    Вы не можете начинать темы
    Вы не можете отвечать на сообщения
    Вы не можете редактировать свои сообщения
    Вы не можете удалять свои сообщения
    Вы не можете голосовать в опросах
    Вы не можете прикреплять файлы к сообщениям
    Вы можете скачивать файлы