Ссылка на приватное зеркало всего за 1$. Внимание количество ограничено!!!

iTunes

1+1

iTunes

мы

WEB-DL

1

iTunes

Чернобыль

iTunes

Ральф против интернета

Лицензия

ПШазам

Лицензия

Оно 2

Лицензия

30
pack

Вам бонус

ВАЖНО

!!Акция!!

Alien_RageХит недели

RePack

Resident Evil 21

ИГРА 18+

pack

RePack

jed

!!Акция!!

Alien_Rage

RePack

fifa19

RePack

Assassins Creed: Odyssey

RePack

NEED FOR SPEED™ PAYBACK

3 сезон

9 сезон

Бесстыжие 9 сезон

Все сериалы

все сериалы на PB.wtf

RePack

FAR CRY 5
Ребята, катастрофически не хватает 1900р. для оплаты серверов за Октябрь (всвязи с блокировками трафик упал в 3 раза), 1-2р., выручайте.
  

Баллада Бастера Скраггса / The Ballad of Buster Scruggs (Итан Коэн, Джоэл Коэн) [2018, мюзикл, драма, мелодрама, WEBRip] DUB [АРК-ТВ Studio + VSI International] pb.wtf

Баллада Бастера Скраггса через торрент pb.wtf

Раздают: 3 [ 0 KB/s ]
Размер: 1.44 GB | Добавлен: 1 год назад | Торрент скачан:653 раза
Скачать  

16-11-2018 12:09 Баллада Бастера Скраггса Скачать торрент  

Баллада Бастера Скраггса / The Ballad of Buster Scruggs
««How the West Was Won»»

Год выпуска: 2018
Страна: США
Жанр: мюзикл, драма, мелодрама, комедия, детектив, вестерн

Продолжительность: 02:13:18
Перевод: Дублированный [АРК-ТВ Studio + VSI International]
Субтитры: Русские (форсированные) (внешние .srt*)
Режиссер: Итан Коэн, Джоэл Коэн
В ролях:

Лиам Нисон (Impresario (segment 'Meal Ticket')), Джеймс Франко (Cowboy (segment 'Near Algodones')), Дэвид Крамхолц (Frenchman in Saloon (segment 'The Ballad of Buster Scruggs')), Клэнси Браун, Зои Казан (Alice Longabaugh (segment 'The Gal Who Got Rattled)), Брендан Глисон (Irishman (segment 'The Mortal Remains')), Гарри Меллинг (Harrison (segment 'The Ballad of Buster Scruggs')), Стивен Рут, Том Уэйтс (Prospector (segment 'All Gold Canyon')), Ралф Айнесон (The Man In Black (segment 'Near Algodones')), Тайн Дейли (Lady (segment 'The Mortal Remains')), Мэттью Уиллиг (Hard Man #3 (segment 'The Ballad of Buster Scruggs'))
Описание:
События разворачиваются на Диком Западе в маленьких захолустных городках среди бескрайних американских прерий и высокогорных равнин. В этом суровом мире, где каждый сам за себя, царит один закон: выживает сильнейший.
Рейтинг:
rating
MPAA: R - Лицам до 17 лет обязательно присутствие взрослого
Качество: WEBRip
Формат: AVI
Видео: XviD, 720x384 (1.85:1), 1288 kbps, 23,976 fps, 0,194 bpp
Аудио: AC3 / 2.0 / 48 kHz / 192 kbps /

General
Complete name : D:\Ballada_Bastera_Skraggsa_2018_WEB-DLRip_by_Dalemake\Ballada_Bastera_Skraggsa_2018_WEB-DLRip_by_Dalemake.avi
Format : AVI
Format/Info : Audio Video Interleave
File size : 1.44 GiB
Duration : 2 h 13 min
Overall bit rate : 1 551 kb/s
Writing application : VirtualDubMod 1.5.10.3 | www.virtualdub-fr.org || (build 2550/release)
Writing library : VirtualDubMod build 2550/release

Video
ID : 0
Format : MPEG-4 Visual
Format profile : Advanced Simple@L5
Format settings, BVOP : 1
Format settings, QPel : No
Format settings, GMC : No warppoints
Format settings, Matrix : Custom
Codec ID : XVID
Codec ID/Hint : XviD
Duration : 2 h 13 min
Bit rate : 1 289 kb/s
Width : 720 pixels
Height : 384 pixels
Display aspect ratio : 1.85:1
Frame rate : 23.976 (23976/1000) FPS
Color space : YUV
Chroma subsampling : 4:2:0
Bit depth : 8 bits
Scan type : Progressive
Compression mode : Lossy
Bits/(Pixel*Frame) : 0.194
Stream size : 1.20 GiB (83%)
Writing library : XviD 67

Audio
ID : 1
Format : AC-3
Format/Info : Audio Coding 3
Mode extension : CM (complete main)
Format settings, Endianness : Big
Codec ID : 2000
Duration : 2 h 13 min
Bit rate mode : Constant
Bit rate : 192 kb/s
Channel(s) : 2 channels
Channel positions : Front: L R
Sampling rate : 48.0 kHz
Frame rate : 31.250 FPS (1536 spf)
Compression mode : Lossy
Stream size : 183 MiB (12%)
Alignment : Split accross interleaves
скриншот   скриншот   скриншот   скриншот  


pb.wtf



Скачать Баллада Бастера Скраггса через торрент http://i106.fastpic.ru/big/2018/1116/fc/a31befc7ddc69135ade53dffbaa4f3fc.jpg Скачать фильм Баллада Бастера Скраггса через торрент бесплантно в хорошем качестве Описание: События разворачиваются на Диком Западе в маленьких захолустных городках среди бескрайних американских прерий и высокогорных ... 9.2 10 11
Info! Золотая раздача, скачанное не засчитывается.
Торрент: Зарегистрирован [2018-11-16 19:11] · скачан: 653 раз
Статус: √ проверено
Размер: 1.44 GB
Как cкачать? Как скачать Баллада Бастера Скраггса через торрент | qTorrent

% Раздел Тема Автор DL S | L
Фильмы 2018 [DVDrip, WEB-DLRip, HDrip] (DUB, MVO) [ 1.46 GB ] Баллада Бастера Скраггса / The Ballad of Buster Scruggs [2018 мюзикл WEB-DLRip] [MVO] killermax2013 Скачать
4 | 0
Фильмы (WEB-DL 720p, 1080p) [ 5.97 GB ] Баллада Бастера Скраггса / The Ballad of Buster Scruggs [2018 мюзикл WEBRip 1080p] DUB [Good People] bober100 Скачать
1 | 0
Фильмы (WEB-DL 720p, 1080p) [ 6.33 GB ] Баллада Бастера Скраггса / The Ballad of Buster Scruggs [2018 мюзикл WEBRip 1080p] MVO [NewStudio] +DUB [АРК-ТВ Studio & VSI International] bober100 Скачать
7 | 0
Фильмы 2018 [DVDrip, WEB-DLRip, HDrip] (DUB, MVO) [ 2.18 GB ] Баллада Бастера Скраггса / The Ballad of Buster Scruggs [2018 мюзикл WEBRip] DUB [АРК-ТВ Studio & VSI International] bober100 Скачать
6 | 0
# Фильмы (WEB-DL 720p, 1080p) [ 3.44 GB ] Баллада Бастера Скраггса / The Ballad of Buster Scruggs [2018 мюзикл WEBRip 720p] DUB [АРК-ТВ Studio & VSI International] bober100 Скачать
1 | 0

28-11-2019 20:33  

Отключить всю рекламу на сайте

17-11-2018 06:51 Баллада Бастера Скраггса Скачать торрент  

О Джеймс франко) Дима Краснов))pb.wtf



24-11-2018 08:45 Баллада Бастера Скраггса Скачать торрент  

Еще один замечательный фильм братьев Коэн. В истории много жестокости, трагизма, черного юмора, но странным образом в конце просмотра не возникает ощущения безотрадной предопределенности. Такова сила таланта Коэнов. Фильм, как всегда у них, снят безукоризненно, работа оператора, костюмы, музыка, все элементы картины высшей пробы. Качество рипа, перевод и дублирование хорошие. Спасибо за раздачу.pb.wtf
K-Lexx- писал(а):

И вам спасибо, за комментарий.



28-11-2018 17:44 Баллада Бастера Скраггса Скачать торрент  

шикарноpb.wtf



30-11-2018 18:25 Баллада Бастера Скраггса Скачать торрент  

Качайте, смотрите!!! Не пожалеете!!!!pb.wtf



    Дорогой пользователь! Огромная просьба, поблагодарите релизера, оцените раздачу и оставьте свои комментарий, если Вы скачали Баллада Бастера Скраггса через торрент бесплатно! Внесите свою лепту в развитие PiratBit!
    Комментировать посты могут только пользователи прошедшие не сложную регистрацию
    Показать сообщения:    

    Баллада Бастера Скраггса через торрент
    Скачать бесплатно Баллада Бастера Скраггса
    Баллада Бастера Скраггса скачать торрент
    Баллада Бастера Скраггса смотреть онлайн
    Cкачать фильм Баллада Бастера Скраггса бесплатно
    Баллада Бастера Скраггса скачать торрент в хорошем качестве
    Баллада Бастера Скраггса смотреть онлайн бесплатно в хорошем качестве


    Вы не можете начинать темы
    Вы не можете отвечать на сообщения
    Вы не можете редактировать свои сообщения
    Вы не можете удалять свои сообщения
    Вы не можете голосовать в опросах
    Вы не можете прикреплять файлы к сообщениям
    Вы можете скачивать файлы