Ссылка на приватное зеркало нашего сайта всего за 1$. Внимание количество ограничено!!!

2 сезон

iTunes

iTunes

1

iTunes

iTunes

iTunes

WEBRip

iTunes

30
pack

Вам бонус

ВАЖНО

!!Акция!!

Alien_RageХит недели

RePack

Horizon Zero Dawn

ИГРА 18+

pack

RePack

jed

!!Акция!!

Alien_Rage

RePack

fifa19

RePack

Assassins Creed: Odyssey

RePack

NEED FOR SPEED™ PAYBACK

4 сезон

9 сезон

Бесстыжие 9 сезон

Все сериалы

все сериалы на PB.wtf

RePack

FAR CRY 5
  

Рождество с Джой / Christmas Joy (Моника Митчелл) [2018, Мелодрама, семейный, HDTVRip 720p] MVO ["Синема УС"] pb.wtf

Рождество с Джой через торрент pb.wtf

Размер: 2.94 GB | Добавлен: 1 год 10 мес. назад | Торрент скачан:34 раза
Скачать  

16-11-2018 12:23 Рождество с Джой Скачать торрент  

Рождество с Джой / Christmas JoyГод выпуска: 2018
Страна: США
Жанр: Мелодрама, семейный
Продолжительность: 01:26:36
Перевод: Любительский (многоголосый) | "Синема УС"
Субтитры: отсутствуют

Режиссер: Моника Митчелл

rating

В ролях:

Майкл Брайан, Беверли Эллиотт, Тейлор Хастингс, Мэтт Лонг, Даниэль Панабэйкер, Люсия Уолтерс

Описание:

История Рождества с Джой основана на романе с таким же названием, который написала Нэнси Найгл, книги которой сейчас разлетаются с полок в США. Главную роль, Джой Холбрук, играет Даниэль Панабэйкер. Джой занимается рыночными исследованиями и хочет добиться повышения в своей фирме. Пока генеральный директор компании присматривается к успехам Джой, ее тётя ломает лодыжку, и вскоре ей предстоит операция. И хотя время совсем неудачное, Джой решает уехать в свой родной городок Кристал-Фолс к тёте. Однако звёзды сходятся, и Джой встречает свою прежнюю любовь- Бена Эндрюса в больнице, где он работает. Сначала Джой лишь заботится о своей тёте, она даже замещает её и становится председателем на местном фестивале печенья. Однако, со временем, она впускает Бена в свою жизнь, и понимает, что в праздники быть дома лучше всего. Бен и Джой становятся главными организаторами фестиваля печенья и делают всё для того, чтобы он удался.

Качество: HDTVRip 720p
Формат: MKV

Видео: h.264, 4 466 kb/s, 1280x720
Аудио: Русский, (AC3, 2 ch, 384 Кбит/с)
скриншот  скриншот  скриншот  

Общее
Уникальный идентификатор : 204774245419183483569822954755582225881 (0x9A0E15C9B79C371DB93EBE5894D66DD9)
Полное имя : D:\Christmas.joy.2O18.P.HDTV.72Op_KOSHARA.mkv
Формат : Matroska
Версия формата : Version 2
Размер файла : 2,94 Гбайт
Продолжительность : 1 ч. 26 м.
Режим общего битрейта : Переменный
Общий поток : 4852 Кбит/сек
Дата кодирования : UTC 2018-11-15 13:19:06
Программа кодирования : mkvmerge v8.3.0 ('Over the Horizon') 64bit
Библиотека кодирования : libebml v1.3.1 + libmatroska v1.4.2

Видео
Идентификатор : 1
Формат : AVC
Формат/Информация : Advanced Video Codec
Профиль формата : High@L4.1
Параметр CABAC формата : Да
Параметр RefFrames формата : 4 кадра
Идентификатор кодека : V_MPEG4/ISO/AVC
Продолжительность : 1 ч. 26 м.
Вид битрейта : Переменный
Битрейт : 4466 Кбит/сек
Максимальный битрейт : 5000 Кбит/сек
Ширина : 1280 пикселей
Высота : 720 пикселей
Соотношение сторон : 16:9
Режим частоты кадров : Постоянный
Частота кадров : 23,976 (24000/1001) кадра/сек
Стандарт вещания : Component
Цветовое пространство : YUV
Субдискретизация насыщенности : 4:2:0
Битовая глубина : 8 бит
Тип развёртки : Прогрессивная
Бит/(Пиксели*Кадры) : 0.198
Размер потока : 2,64 Гбайт (90%)
Default : Да
Forced : Нет
Цветовой диапазон : Limited
Основные цвета : BT.709
Характеристики трансфера : BT.709
Коэффициенты матрицы : BT.709

Аудио
Идентификатор : 2
Формат : AC-3
Формат/Информация : Audio Coding 3
Расширение режима : CM (complete main)
Параметр Endianness формата : Big
Идентификатор кодека : A_AC3
Продолжительность : 1 ч. 26 м.
Вид битрейта : Постоянный
Битрейт : 384 Кбит/сек
Каналы : 2 канала
Расположение каналов : Front: L R
Частота : 48,0 КГц
Частота кадров : 31,250 кадров/сек (1536 spf)
Метод сжатия : С потерями
Размер потока : 238 Мбайт (8%)
Default : Да
Forced : Нет

pb.wtf



Скачать Рождество с Джой через торрент https://b.radikal.ru/b18/1811/90/a5e4539afd55.jpg Скачать фильм Рождество с Джой через торрент бесплантно в хорошем качестве Описание: История Рождества с Джой основана на романе с таким же названием, который написала Нэнси Найгл, книги которой сейчас разлетаются ... 10 10 2
Торрент: Зарегистрирован [2018-11-16 12:23] · скачан: 34 раз
Статус: T временная
Размер: 2.94 GB
Как cкачать? Как скачать Рождество с Джой через торрент | qTorrent

% Раздел Тема Автор DL S | L
T Фильмы (мультфильмы) cо спонсором показа (Новинки AVI/MKV) [ 1.37 GB ] Рождество с Джой / Christmas Joy [2018 Мело HDTVRip] MVO ["Синема УС"] bober100 Скачать
1 | 0
Фильмы 2001-2005 [ 1.46 GB ] Рождество с Неудачниками / Christmas with the Kranks [2004 DVDRip] IceDevil71 Скачать
1 | 0

28-11-2019 20:33  

Отключить всю рекламу на сайте

    Дорогой пользователь! Огромная просьба, поблагодарите релизера, оцените раздачу и оставьте свои комментарий, если Вы скачали Рождество с Джой через торрент бесплатно! Внесите свою лепту в развитие PiratBit!
    Комментировать посты могут только пользователи прошедшие не сложную регистрацию
    Показать сообщения:    

    Рождество с Джой через торрент
    Скачать бесплатно Рождество с Джой
    Рождество с Джой скачать торрент
    Рождество с Джой смотреть онлайн
    Cкачать фильм Рождество с Джой бесплатно
    Рождество с Джой скачать торрент в хорошем качестве
    Рождество с Джой смотреть онлайн бесплатно в хорошем качестве


    Вы не можете начинать темы
    Вы не можете отвечать на сообщения
    Вы не можете редактировать свои сообщения
    Вы не можете удалять свои сообщения
    Вы не можете голосовать в опросах
    Вы не можете прикреплять файлы к сообщениям
    Вы можете скачивать файлы