Ссылка на приватное зеркало всего за 1$. Внимание количество ограничено!!!

OK

1+1

iTunes

мы

OK

1

WEB-DLRip

Джокер

Пифагор

Ведьмак / The Witcher сериал

iTunes

ПШазам

ОК

Оно 2

iTunes

30
pack

Вам бонус

ВАЖНО

!!Акция!!

Alien_RageХит недели

RePack

Resident Evil 21

ИГРА 18+

pack

RePack

jed

RePack

fifa19

RePack

Assassins Creed: Odyssey

RePack

NEED FOR SPEED™ PAYBACK

4 сезон

9 сезон

Бесстыжие 9 сезон

Все сериалы

все сериалы на PB.wtf

RePack

FAR CRY 5
  

Зомби в 17 / Zombie at 17 (Александр Карьер) [2018, Триллер, WEB-DL 720p] MVO ["Синема УС"] pb.wtf

Зомби в 17 через торрент pb.wtf

Размер: 2.91 GB | Добавлен: 1 год 2 мес. назад | Торрент скачан:30 раз
Скачать  

16-11-2018 12:36 Зомби в 17 Скачать торрент  

Зомби в 17 / Zombie at 17Год выпуска: 2018
Страна: Канада
Жанр: Триллер
Продолжительность: 01:26:17
Перевод: Любительский (многоголосый) | "Синема УС"
Субтитры: отсутствуют

Режиссер: Александр Карьер

rating

В ролях:

Лори Фортье, Селеста Дежардинс, Симус Паттерсон, Карсон МакКормак, Аланна Бэйл, Джек Бриттон, Коннор МакМахон, Аша Талберт, Хелена-Алексис Сеймур, Гэбриэль Дарку

Описание:

Тиа Скотт – обычная семнадцатилетняя девочка, чья жизнь меняется после того, как ее сестру сбивает машина. Но то, что происходит с ней сейчас, еще более пугающее, потому что оно медленно убивает ее.

Качество: WEB-DL 720p
Формат: MKV

Видео: h.264, 4 438 Кбит/с, 1280x720
Аудио#1: Русский, (AC3, 2 ch, 384 Кбит/с)
скриншот  скриншот  скриншот  

Общее
Уникальный идентификатор : 213160688017671386923466221246092608800 (0xA05D4154EA1A3E8BAAAA62D769E30520)
Полное имя : D:\Zombie.at.17.2O18.P.WEB-DL.72Op.mkv
Формат : Matroska
Версия формата : Version 2
Размер файла : 2,91 Гбайт
Продолжительность : 1 ч. 26 м.
Режим общего битрейта : Переменный
Общий поток : 4824 Кбит/сек
Дата кодирования : UTC 2018-11-15 05:10:48
Программа кодирования : mkvmerge v8.3.0 ('Over the Horizon') 64bit
Библиотека кодирования : libebml v1.3.1 + libmatroska v1.4.2

Видео
Идентификатор : 1
Формат : AVC
Формат/Информация : Advanced Video Codec
Профиль формата : High@L4.1
Параметр CABAC формата : Да
Параметр RefFrames формата : 4 кадра
Идентификатор кодека : V_MPEG4/ISO/AVC
Продолжительность : 1 ч. 26 м.
Вид битрейта : Переменный
Битрейт : 4438 Кбит/сек
Максимальный битрейт : 5000 Кбит/сек
Ширина : 1280 пикселей
Высота : 720 пикселей
Соотношение сторон : 16:9
Режим частоты кадров : Постоянный
Частота кадров : 23,976 (24000/1001) кадра/сек
Стандарт вещания : Component
Цветовое пространство : YUV
Субдискретизация насыщенности : 4:2:0
Битовая глубина : 8 бит
Тип развёртки : Прогрессивная
Бит/(Пиксели*Кадры) : 0.197
Размер потока : 2,62 Гбайт (90%)
Default : Да
Forced : Нет
Цветовой диапазон : Limited
Основные цвета : BT.709
Характеристики трансфера : BT.709
Коэффициенты матрицы : BT.709

Аудио
Идентификатор : 2
Формат : AC-3
Формат/Информация : Audio Coding 3
Расширение режима : CM (complete main)
Параметр Endianness формата : Big
Идентификатор кодека : A_AC3
Продолжительность : 1 ч. 26 м.
Вид битрейта : Постоянный
Битрейт : 384 Кбит/сек
Каналы : 2 канала
Расположение каналов : Front: L R
Частота : 48,0 КГц
Частота кадров : 31,250 кадров/сек (1536 spf)
Метод сжатия : С потерями
Размер потока : 237 Мбайт (8%)
Default : Да
Forced : Нет

pb.wtf



Скачать Зомби в 17 через торрент https://a.radikal.ru/a07/1811/8b/75517789b6ca.jpg Скачать фильм Зомби в 17 через торрент бесплантно в хорошем качестве Описание: Тиа Скотт – обычная семнадцатилетняя девочка, чья жизнь меняется после того, как ее сестру сбивает машина. Но то, что происходит ... 10 10 3
Торрент: Зарегистрирован [2018-11-16 12:36] · скачан: 30 раз
Статус: T временная
Размер: 2.91 GB
Как cкачать? Как скачать Зомби в 17 через торрент | qTorrent

% Раздел Тема Автор DL S | L
T Фильмы (мультфильмы) cо спонсором показа (Новинки AVI/MKV) [ 1.37 GB ] Зомби в 17 / Zombie at 17 [2018 WEB-DLRip] MVO ["Синема УС"] bober100 Скачать
1 | 0

28-11-2019 20:33  

Отключить всю рекламу на сайте

    Дорогой пользователь! Огромная просьба, поблагодарите релизера, оцените раздачу и оставьте свои комментарий, если Вы скачали Зомби в 17 через торрент бесплатно! Внесите свою лепту в развитие PiratBit!
    Комментировать посты могут только пользователи прошедшие не сложную регистрацию
    Показать сообщения:    

    Зомби в 17 через торрент
    Скачать бесплатно Зомби в 17
    Зомби в 17 скачать торрент
    Зомби в 17 смотреть онлайн
    Cкачать фильм Зомби в 17 бесплатно
    Зомби в 17 скачать торрент в хорошем качестве
    Зомби в 17 смотреть онлайн бесплатно в хорошем качестве


    Вы не можете начинать темы
    Вы не можете отвечать на сообщения
    Вы не можете редактировать свои сообщения
    Вы не можете удалять свои сообщения
    Вы не можете голосовать в опросах
    Вы не можете прикреплять файлы к сообщениям
    Вы можете скачивать файлы