Ребята, если до конца года каждый наш пользователь пожертвует хотя бы 10 рублей, нам хватит денег оплатить все наши расходы.

iTunes

iTunes

Миссия невыполнима: Последствия

iTunes

Поиск

4 сезон

дом

MVO

venom

iTunes

Багровая мята

iTunes

Проклятие монахини

iTunes

Человек на Луне Хит недели

ИГРА 18+

pack

RePack

Battlefield V Хит недели

RePack

Assassins Creed: Odyssey
pack

RePack

Darksiders 3

iTunes 4K

Миссия невыполнима: Последствия

RePack

fifa19

!!Акция!!

Alien_RageХит недели

RePack

NEED FOR SPEED™ PAYBACK

SATRip

9 сезон

Бесстыжие 9 сезон

Все сериалы

все сериалы на PB.wtf

iTunes

Мэнди

RePack

FAR CRY 5
  

Семейка Крудс / The Croods (Кирк де Микко, Крис Сандерс) [2013 г., Мультфильм, фэнтези, боевик, комедия, приключения, семейный, BDRip 1080p, HEVC (10bit), Дубляж (Лицензия)]

Семейка Крудс через торрент

Раздают: 4 [ 0 KB/s ]
Размер: 5.28 GB | Добавлен: 1 мес. назад | Торрент скачан:100 раз
Скачать  

16-11-2018 13:57 Семейка Крудс Скачать торрент  

Семейка Крудс / The Croods
Год выпуска: 2013
Страна: США
Жанр: Мультфильм, фэнтези, боевик, комедия, приключения, семейный
Продолжительность: 01:38:36
Перевод: Дубляж (Лицензия)
Субтитры: Русские, английские

Режиссер: Кирк де Микко, Крис Сандерс

rating

Описание: Землетрясение уничтожило дом доисторической семьи, и теперь Крудсам придётся искать другое пристанище. А вокруг новый и опасный мир! Им на помощь приходит молодой кочевник Малой, передовые взгляды которого наталкиваются на консервативность главы семьи Груга. Но только вместе они смогут выжить и достичь своей цели…
Доп. информация: -
H.265/HEVC (High Efficiency Video Coding) - это новый стандарт кодирования видео.
- Стандарт H.265/HEVC является логическим продолжением стандарта
H.264/AVC (Advanced Video Coding), и характеризуется более эффективными
алгоритмами сжатия, а также поддержкой высокого разрешения вплоть до 8K UHD
(8192x4320). Первая версия стандарта H.265 была опубликована в начале 2013 года.
- Рипы в фомате HEVC поддерживается не всеми аппаратными проигрывателями.
- Для корректного воспроизведения может потребоваться обновление ПО.
- Владельцам несовместимого железа просьба не беспокоить,
есть альтернативные релизы.
Качество: BDRip 1080p
Формат: MKV
Видео кодек: H.265
Аудио кодек: AC3
Видео: 1920x816, ~6249 Kbps
Аудио#1: DTS, 6 ch, 768 Kbps - Дублированный
Аудио#2: AC3, 6 ch, 640 Kbps - Английский
Релиз от: Mr. Fox

Общее
Уникальный идентификатор : 279646504771254826835078761703006919879 (0xD261F52E54F7BE760F7273D3C30DDCC7)
Полное имя : F:\РАЗДАЧИ\The Croods. 2013. 1080p [HEVC] 10 bit..mkv
Формат : Matroska
Версия формата : Version 4 / Version 2
Размер файла : 5,28 Гбайт
Продолжительность : 1 ч. 38 м.
Общий поток : 7661 Кбит/сек
Дата кодирования : UTC 2018-11-16 06:07:02
Программа кодирования : mkvmerge v28.2.0 ('The Awakening') 64-bit
Библиотека кодирования : libebml v1.3.6 + libmatroska v1.4.9
Обложка : Yes
Attachments : cover.jpg

Видео
Идентификатор : 1
Формат : HEVC
Формат/Информация : High Efficiency Video Coding
Профиль формата : Main 10@L4.1@High
Идентификатор кодека : V_MPEGH/ISO/HEVC
Продолжительность : 1 ч. 38 м.
Битрейт : 6249 Кбит/сек
Ширина : 1920 пикселей
Высота : 816 пикселей
Соотношение сторон : 2,35:1
Режим частоты кадров : Постоянный
Частота кадров : 23,976 (24000/1001) кадра/сек
Цветовое пространство : YUV
Субдискретизация насыщенности : 4:2:0
Битовая глубина : 10 бит
Бит/(Пиксели*Кадры) : 0.166
Размер потока : 4,30 Гбайт (82%)
Библиотека кодирования : x265 2.8+74-fd517ae68f93:[Windows][GCC 7.3.0][64 bit] 10bit
Настройки программы : cpuid=1111039 / frame-threads=13 / numa-pools=12 / wpp / no-pmode / no-pme / no-psnr / no-ssim / log-level=3 / input-csp=1 / input-res=1920x816 / interlace=0 / total-frames=0 / level-idc=41 / high-tier=1 / uhd-bd=0 / ref=5 / allow-non-conformance / no-repeat-headers / annexb / no-aud / no-hrd / info / hash=0 / no-temporal-layers / open-gop / min-keyint=24 / keyint=240 / gop-lookahead=0 / bframes=9 / b-adapt=2 / b-pyramid / bframe-bias=0 / rc-lookahead=60 / lookahead-slices=4 / scenecut=40 / radl=0 / no-intra-refresh / ctu=32 / min-cu-size=8 / rect / amp / max-tu-size=32 / tu-inter-depth=4 / tu-intra-depth=4 / limit-tu=1 / rdoq-level=2 / dynamic-rd=0.00 / no-ssim-rd / signhide / no-tskip / nr-intra=0 / nr-inter=0 / no-constrained-intra / no-strong-intra-smoothing / max-merge=4 / limit-refs=2 / limit-modes / me=3 / subme=7 / merange=57 / temporal-mvp / weightp / weightb / no-analyze-src-pics / deblock=-3:-3 / no-sao / no-sao-non-deblock / rd=6 / no-early-skip / no-rskip / no-fast-intra / no-tskip-fast / no-cu-lossless / no-b-intra / no-splitrd-skip / rdpenalty=0 / psy-rd=2.00 / psy-rdoq=1.00 / no-rd-refine / no-lossless / cbqpoffs=0 / crqpoffs=0 / rc=crf / crf=19.0 / qcomp=0.65 / qpstep=1 / stats-write=0 / stats-read=0 / vbv-maxrate=50000 / vbv-bufsize=50000 / vbv-init=0.9 / crf-max=30.0 / crf-min=0.0 / ipratio=1.40 / pbratio=1.30 / aq-mode=1 / aq-strength=0.90 / no-cutree / zone-count=0 / no-strict-cbr / qg-size=32 / no-rc-grain / qpmax=69 / qpmin=0 / no-const-vbv / sar=1 / overscan=0 / videoformat=5 / range=0 / colorprim=2 / transfer=2 / colormatrix=2 / chromaloc=0 / display-window=0 / max-cll=0,0 / min-luma=0 / max-luma=1023 / log2-max-poc-lsb=8 / vui-timing-info / vui-hrd-info / slices=1 / no-opt-qp-pps / no-opt-ref-list-length-pps / no-multi-pass-opt-rps / scenecut-bias=0.05 / no-opt-cu-delta-qp / no-aq-motion / no-hdr / no-hdr-opt / no-dhdr10-opt / no-idr-recovery-sei / analysis-reuse-level=5 / scale-factor=0 / refine-intra=0 / refine-inter=0 / refine-mv=0 / no-limit-sao / ctu-info=0 / no-lowpass-dct / refine-mv-type=0 / copy-pic=1 / max-ausize-factor=1.0 / no-dynamic-refine / no-single-sei
Default : Да
Forced : Нет

Аудио #1
Идентификатор : 2
Формат : DTS
Формат/Информация : Digital Theater Systems
Идентификатор кодека : A_DTS
Продолжительность : 1 ч. 38 м.
Вид битрейта : Постоянный
Битрейт : 768 Кбит/сек
Каналы : 6 каналов
Расположение каналов : Front: L C R, Side: L R, LFE
Частота : 48,0 КГц
Частота кадров : 93,750 кадра/сек (512 SPF)
Битовая глубина : 24 бит
Метод сжатия : С потерями
Размер потока : 542 Мбайт (10%)
Заголовок : DTS Rus Dub
Язык : Russian
Default : Да
Forced : Нет

Аудио #2
Идентификатор : 3
Формат : AC-3
Формат/Информация : Audio Coding 3
Идентификатор кодека : A_AC3
Продолжительность : 1 ч. 38 м.
Вид битрейта : Постоянный
Битрейт : 640 Кбит/сек
Каналы : 6 каналов
Расположение каналов : Front: L C R, Side: L R, LFE
Частота : 48,0 КГц
Частота кадров : 31,250 кадров/сек (1536 SPF)
Битовая глубина : 16 бит
Метод сжатия : С потерями
Размер потока : 451 Мбайт (8%)
Заголовок : AC3, 6 ch, 48 kHz, 448 kbps
Язык : English
ServiceKind/String : Complete Main
Default : Нет
Forced : Нет

Текст #1
Идентификатор : 4
Формат : UTF-8
Идентификатор кодека : S_TEXT/UTF8
Идентификатор кодека/Информация : UTF-8 Plain Text
Продолжительность : 1 ч. 37 м.
Битрейт : 59 бит/сек
ElementCount : 1023
Размер потока : 42,5 Кбайт (0%)
Заголовок : SRT, Full
Язык : Russian
Default : Нет
Forced : Нет

Текст #2
Идентификатор : 5
Формат : UTF-8
Идентификатор кодека : S_TEXT/UTF8
Идентификатор кодека/Информация : UTF-8 Plain Text
Продолжительность : 1 ч. 28 м.
Битрейт : 39 бит/сек
ElementCount : 1021
Размер потока : 25,5 Кбайт (0%)
Заголовок : SRT, Full
Язык : English
Default : Нет
Forced : Нет

Меню
00:00:00.000 : en:Chapter 1
00:02:34.988 : en:Chapter 2
00:04:51.750 : en:Chapter 3
00:09:01.249 : en:Chapter 4
00:12:21.115 : en:Chapter 5
00:14:04.802 : en:Chapter 6
00:18:33.029 : en:Chapter 7
00:21:56.982 : en:Chapter 8
00:23:24.737 : en:Chapter 9
00:26:49.775 : en:Chapter 10
00:28:37.132 : en:Chapter 11
00:30:25.657 : en:Chapter 12
00:32:48.633 : en:Chapter 13
00:36:03.370 : en:Chapter 14
00:38:33.561 : en:Chapter 15
00:41:34.534 : en:Chapter 16
00:44:38.843 : en:Chapter 17
00:48:02.630 : en:Chapter 18
00:52:10.961 : en:Chapter 19
00:55:17.481 : en:Chapter 20
01:00:14.778 : en:Chapter 21
01:03:58.084 : en:Chapter 22
01:05:48.736 : en:Chapter 23
01:08:44.037 : en:Chapter 24
01:10:47.285 : en:Chapter 25
01:12:37.144 : en:Chapter 26
01:14:01.646 : en:Chapter 27
01:19:48.575 : en:Chapter 28
01:23:09.860 : en:Chapter 29
01:25:16.737 : en:Chapter 30
01:28:04.321 : en:Chapter 31
01:30:02.230 : en:Chapter 32




Скачать Семейка Крудс через торрент https://a.radikal.ru/a00/1811/b6/3cebfa248d4e.jpg Скачать фильм Семейка Крудс через торрент бесплантно в хорошем качестве Описание: Землетрясение уничтожило дом доисторической семьи, и теперь Крудсам придётся искать другое пристанище. А вокруг новый и опасный ... 9.8 10 5
Info! Золотая раздача, скачанное не засчитывается.
Торрент: Зарегистрирован [2018-11-16 13:57] · скачан: 100 раз
Статус: √ проверено
Размер: 5.28 GB
Как cкачать? Как скачать Семейка Крудс через торрент | qTorrent

% Раздел Тема Автор DL S | L
Мультсериалы [ 4.56 GB ] Крудсы: Начало / Семейка Крудс. Начало / Dawn of the Croods / Сезон: 2 / Серии 1-13 из 13 [2016 мультфильм WEBRip 720p] MVO [NewStudio] GEKADOL Скачать
1 | 0
Мультсериалы [ 5.9 GB ] Крудсы: Начало / Семейка Крудс. Начало / Dawn of the Croods / Сезон: 1 / Серии 1-13 из 13 [2015 мультфильм WEBRip-AVC] MVO [NewStudio GEKADOL Скачать
1 | 0
Иностранные мультфильмы [ 1.37 GB ] Семейка Крудс / The Croods [2013 мультфильм DVDRip [лицензия] Ворон Скачать
2 | 0
Мультфильмы (48-60 fps) [ 9.85 GB ] Семейка Крудс / The Croods [2013 мультфильм BDRip 1080p ] 60 fps -=DANTE=- Скачать
2 | 0
Зарубежные Мультфильмы (DVD) [ 6.93 GB ] Семейка Крудс / The Croods [2013 мультфильм DVD9] R5 voovaz Скачать
1 | 0
Иностранные мультфильмы [ 2.19 GB ] Семейка Крудс / The Croods [2013 мультфильм BDRip-AVC] potroks Скачать
1 | 0
3D Мультфильмы [ 10.09 GB ] Семейка Крудс в 3D/ The Croods in 3D [2013 мультфильм BDRip 1080p ] Анаглиф slaventi-69 Скачать
1 | 0


>> Регистрируемся здесь <<






Отзывы и комментарии о схеме читаем и пишем здесь: ---> Отзывы и комментарии о схеме

Новые благодарочки в телеграм довольных пользователей:
скриншот   скриншот   скриншот   скриншот   скриншот

16-11-2018 15:44 Семейка Крудс Скачать торрент  

Классный мультик



18-11-2018 07:38 Семейка Крудс Скачать торрент  

Телек почему то не показывает, ругается на кодек



30-11-2018 16:31 Семейка Крудс Скачать торрент  

I flex like hulk hogan u)



    Дорогой пользователь! Огромная просьба, поблагодарите релизера, оцените раздачу и оставьте свои комментарий, если Вы скачали Семейка Крудс через торрент бесплатно! Внесите свою лепту в развитие PiratBit!
    Комментировать посты могут только пользователи прошедшие не сложную регистрацию
    Показать сообщения:    

    Семейка Крудс через торрент
    Скачать бесплатно Семейка Крудс
    Семейка Крудс скачать торрент
    Семейка Крудс смотреть онлайн
    Cкачать фильм Семейка Крудс бесплатно
    Семейка Крудс скачать торрент в хорошем качестве
    Семейка Крудс смотреть онлайн бесплатно в хорошем качестве


    Вы не можете начинать темы
    Вы не можете отвечать на сообщения
    Вы не можете редактировать свои сообщения
    Вы не можете удалять свои сообщения
    Вы не можете голосовать в опросах
    Вы не можете прикреплять файлы к сообщениям
    Вы можете скачивать файлы