Ссылка на приватное зеркало всего за 1$. Внимание количество ограничено!!!

OK

1+1

iTunes

мы

OK

1

WEB-DLRip

Джокер

Пифагор

Ведьмак / The Witcher сериал

iTunes

ПШазам

ОК

Оно 2

iTunes

30
pack

Вам бонус

ВАЖНО

!!Акция!!

Alien_RageХит недели

RePack

Resident Evil 21

ИГРА 18+

pack

RePack

jed

RePack

fifa19

RePack

Assassins Creed: Odyssey

RePack

NEED FOR SPEED™ PAYBACK

4 сезон

9 сезон

Бесстыжие 9 сезон

Все сериалы

все сериалы на PB.wtf

RePack

FAR CRY 5
  

Потерянная ночь / Sarajin bam / The Vanished (Ли Чхан-хи) [2018, триллер, детектив, криминал, WEB-DL 720p] MVO [КОЛОБОК] pb.wtf

Потерянная ночь через торрент pb.wtf

Раздают: 1 [ 0 KB/s ]
Размер: 3.48 GB | Добавлен: 1 год 2 мес. назад | Торрент скачан:69 раз
Скачать  

16-11-2018 15:31 Потерянная ночь Скачать торрент  

Потерянная ночь / Sarajin bam / The VanishedГод выпуска: 2018
Страна: Корея Южная
Жанр: триллер, детектив, криминал
Продолжительность: 01:42:40
Перевод: Любительский (многоголосый) | КОЛОБОК
Субтитры: отсутствуют

Режиссер: Ли Чхан-хи

rating

В ролях:

Ким Сан-гён, Ким Ган-у, Ким Хи-э, Хан Джи-ан, Ли Джи-хун, Со Хён-у, Ли Мин-джи, Чхве Мён-бин, Ким Джи-ён, Хён Бон-щик

Описание:

Тело умершей от сердечного приступа состоятельной женщины при загадочных обстоятельствах пропадает из морга. Вызванный среди ночи муж покойной явно что-то скрывает, и теперь полицейскому детективу, решившему во что бы то ни стало докопаться до правды, предстоит интересная ночь.

Качество: WEB-DL 720p
Формат: MKV

Видео: h.264 4 467 Кбит/с, 1280x536
Аудио#1: Русский, (AC3, 2 ch, 384 Кбит/с)
скриншот  скриншот  скриншот  

Общее
Уникальный идентификатор : 234824774413662088404522358769381386413 (0xB0A99B41CBE78BE3BE5C69DF4D19A8AD)
Полное имя : D:\The.Vanished.2O18.Pk.WEB-DL.72Op.mkv
Формат : Matroska
Версия формата : Version 2
Размер файла : 3,48 Гбайт
Продолжительность : 1 ч. 42 м.
Режим общего битрейта : Переменный
Общий поток : 4852 Кбит/сек
Дата кодирования : UTC 2018-11-15 06:18:52
Программа кодирования : mkvmerge v8.3.0 ('Over the Horizon') 64bit
Библиотека кодирования : libebml v1.3.1 + libmatroska v1.4.2

Видео
Идентификатор : 1
Формат : AVC
Формат/Информация : Advanced Video Codec
Профиль формата : High@L4.1
Параметр CABAC формата : Да
Параметр RefFrames формата : 4 кадра
Идентификатор кодека : V_MPEG4/ISO/AVC
Продолжительность : 1 ч. 42 м.
Вид битрейта : Переменный
Битрейт : 4467 Кбит/сек
Максимальный битрейт : 5000 Кбит/сек
Ширина : 1280 пикселей
Высота : 536 пикселей
Соотношение сторон : 2,40:1
Режим частоты кадров : Постоянный
Частота кадров : 23,976 (24000/1001) кадра/сек
Стандарт вещания : Component
Цветовое пространство : YUV
Субдискретизация насыщенности : 4:2:0
Битовая глубина : 8 бит
Тип развёртки : Прогрессивная
Бит/(Пиксели*Кадры) : 0.266
Размер потока : 3,14 Гбайт (90%)
Default : Да
Forced : Нет
Цветовой диапазон : Limited
Основные цвета : BT.709
Характеристики трансфера : BT.709
Коэффициенты матрицы : BT.709

Аудио
Идентификатор : 2
Формат : AC-3
Формат/Информация : Audio Coding 3
Расширение режима : CM (complete main)
Параметр Endianness формата : Big
Идентификатор кодека : A_AC3
Продолжительность : 1 ч. 42 м.
Вид битрейта : Постоянный
Битрейт : 384 Кбит/сек
Каналы : 2 канала
Расположение каналов : Front: L R
Частота : 48,0 КГц
Частота кадров : 31,250 кадров/сек (1536 spf)
Метод сжатия : С потерями
Размер потока : 282 Мбайт (8%)
Default : Да
Forced : Нет

pb.wtf



Скачать Потерянная ночь через торрент https://a.radikal.ru/a05/1811/01/e0c3813eeb04.jpg Скачать фильм Потерянная ночь через торрент бесплантно в хорошем качестве Описание: Тело умершей от сердечного приступа состоятельной женщины при загадочных обстоятельствах пропадает из морга. Вызванный среди ночи ... 8.8 10 4
Торрент: Зарегистрирован [2018-11-16 15:31] · скачан: 69 раз
Статус: T временная
Размер: 3.48 GB
Как cкачать? Как скачать Потерянная ночь через торрент | qTorrent

% Раздел Тема Автор DL S | L
T Фильмы (мультфильмы) cо спонсором показа (Новинки AVI/MKV) [ 1.37 GB ] Потерянная ночь / Sarajin bam / The Vanished [2018 WEB-DLRip] MVO [КОЛОБОК] bober100 Скачать
1 | 0

28-11-2019 20:33  

Отключить всю рекламу на сайте

    Дорогой пользователь! Огромная просьба, поблагодарите релизера, оцените раздачу и оставьте свои комментарий, если Вы скачали Потерянная ночь через торрент бесплатно! Внесите свою лепту в развитие PiratBit!
    Комментировать посты могут только пользователи прошедшие не сложную регистрацию
    Показать сообщения:    

    Потерянная ночь через торрент
    Скачать бесплатно Потерянная ночь
    Потерянная ночь скачать торрент
    Потерянная ночь смотреть онлайн
    Cкачать фильм Потерянная ночь бесплатно
    Потерянная ночь скачать торрент в хорошем качестве
    Потерянная ночь смотреть онлайн бесплатно в хорошем качестве


    Вы не можете начинать темы
    Вы не можете отвечать на сообщения
    Вы не можете редактировать свои сообщения
    Вы не можете удалять свои сообщения
    Вы не можете голосовать в опросах
    Вы не можете прикреплять файлы к сообщениям
    Вы можете скачивать файлы