Ссылка на приватное зеркало всего за 1$. Внимание количество ограничено!!!

OK

1+1

iTunes

мы

OK

1

WEB-DLRip

Джокер

Пифагор

Ведьмак / The Witcher сериал

iTunes

ПШазам

ОК

Оно 2

iTunes

30
pack

Вам бонус

ВАЖНО

!!Акция!!

Alien_RageХит недели

RePack

Resident Evil 21

ИГРА 18+

pack

RePack

jed

RePack

fifa19

RePack

Assassins Creed: Odyssey

RePack

NEED FOR SPEED™ PAYBACK

4 сезон

9 сезон

Бесстыжие 9 сезон

Все сериалы

все сериалы на PB.wtf

RePack

FAR CRY 5
  

Трасса 80 / Route 80 (Ник Рапуано) [2018, драма, WEB-DL 720p] MVO ["Синема УС"] pb.wtf

Трасса 80 через торрент pb.wtf

Размер: 3 GB | Добавлен: 1 год 2 мес. назад | Торрент скачан:10 раз
Скачать  

16-11-2018 15:48 Трасса 80 Скачать торрент  

Трасса 80 / Route 80Год выпуска: 2018
Страна: США
Жанр: драма
Продолжительность: 01:32:12
Перевод: Любительский (многоголосый) | "Синема УС"
Субтитры: отсутствуют

Режиссер: Ник Рапуано

rating

В ролях:

Бак Биестек, Коринна Бритти, Энтони Д'Элия

Описание:

Томми возвращается в Северный Брэнфорд после двух лет, проведённых в Нью-Йорке, и останавливается в доме своего дяди, в котором разгораются нешуточные страсти. Двоюродные брат и сестра Томми тяжело переживают смерть матери и осуждают отца за то, что он вновь женился спустя всего два года после смерти первой жены.

Качество: WEB-DL 720p
Формат: MKV

Видео: h.264, 4 273 kb/s, 1280x720
Аудио#1: Русский, (AC3, 2 ch, 384 Кбит/с)
скриншот  скриншот  скриншот  

Общее
Уникальный идентификатор : 176264798126845972819527005003033537608 (0x849B5D8357D4378685130025FA16EC48)
Полное имя : D:\Route.80.2O18.P.WEB-DL.72Op_KOSHARA.mkv
Формат : Matroska
Версия формата : Version 2
Размер файла : 3,00 Гбайт
Продолжительность : 1 ч. 32 м.
Режим общего битрейта : Переменный
Общий поток : 4659 Кбит/сек
Дата кодирования : UTC 2018-11-15 09:52:58
Программа кодирования : mkvmerge v8.3.0 ('Over the Horizon') 64bit
Библиотека кодирования : libebml v1.3.1 + libmatroska v1.4.2

Видео
Идентификатор : 1
Формат : AVC
Формат/Информация : Advanced Video Codec
Профиль формата : High@L4.1
Параметр CABAC формата : Да
Параметр RefFrames формата : 4 кадра
Идентификатор кодека : V_MPEG4/ISO/AVC
Продолжительность : 1 ч. 32 м.
Вид битрейта : Переменный
Битрейт : 4273 Кбит/сек
Максимальный битрейт : 5000 Кбит/сек
Ширина : 1280 пикселей
Высота : 720 пикселей
Соотношение сторон : 16:9
Режим частоты кадров : Постоянный
Частота кадров : 23,976 (24000/1001) кадра/сек
Стандарт вещания : Component
Цветовое пространство : YUV
Субдискретизация насыщенности : 4:2:0
Битовая глубина : 8 бит
Тип развёртки : Прогрессивная
Бит/(Пиксели*Кадры) : 0.189
Размер потока : 2,69 Гбайт (90%)
Default : Да
Forced : Нет
Цветовой диапазон : Limited
Основные цвета : BT.709
Характеристики трансфера : BT.709
Коэффициенты матрицы : BT.709

Аудио
Идентификатор : 2
Формат : AC-3
Формат/Информация : Audio Coding 3
Расширение режима : CM (complete main)
Параметр Endianness формата : Big
Идентификатор кодека : A_AC3
Продолжительность : 1 ч. 32 м.
Вид битрейта : Постоянный
Битрейт : 384 Кбит/сек
Каналы : 2 канала
Расположение каналов : Front: L R
Частота : 48,0 КГц
Частота кадров : 31,250 кадров/сек (1536 spf)
Метод сжатия : С потерями
Размер потока : 253 Мбайт (8%)
Default : Да
Forced : Нет

pb.wtf



Скачать Трасса 80 через торрент https://d.radikal.ru/d08/1811/29/f36e04f06ca9.jpg Скачать фильм Трасса 80 через торрент бесплантно в хорошем качестве Описание: Томми возвращается в Северный Брэнфорд после двух лет, проведённых в Нью-Йорке, и останавливается в доме своего дяди, в котором ... 7.3 10 3
Торрент: Зарегистрирован [2018-11-16 15:48] · скачан: 10 раз
Статус: T временная
Размер: 3 GB
Как cкачать? Как скачать Трасса 80 через торрент | qTorrent

% Раздел Тема Автор DL S | L
T Фильмы (мультфильмы) cо спонсором показа (Новинки AVI/MKV) [ 1.37 GB ] Трасса 80 / Route 80 [2018 WEB-DLRip] MVO ["Синема УС"] bober100 Скачать
1 | 0

28-11-2019 20:33  

Отключить всю рекламу на сайте

    Дорогой пользователь! Огромная просьба, поблагодарите релизера, оцените раздачу и оставьте свои комментарий, если Вы скачали Трасса 80 через торрент бесплатно! Внесите свою лепту в развитие PiratBit!
    Комментировать посты могут только пользователи прошедшие не сложную регистрацию
    Показать сообщения:    

    Трасса 80 через торрент
    Скачать бесплатно Трасса 80
    Трасса 80 скачать торрент
    Трасса 80 смотреть онлайн
    Cкачать фильм Трасса 80 бесплатно
    Трасса 80 скачать торрент в хорошем качестве
    Трасса 80 смотреть онлайн бесплатно в хорошем качестве


    Вы не можете начинать темы
    Вы не можете отвечать на сообщения
    Вы не можете редактировать свои сообщения
    Вы не можете удалять свои сообщения
    Вы не можете голосовать в опросах
    Вы не можете прикреплять файлы к сообщениям
    Вы можете скачивать файлы