Ссылка на приватное зеркало всего за 1$. Внимание количество ограничено!!!

OK

1+1

iTunes

мы

OK

1

WEB-DLRip

Джокер

Пифагор

Ведьмак / The Witcher сериал

iTunes

ПШазам

ОК

Оно 2

iTunes

30
pack

Вам бонус

ВАЖНО

!!Акция!!

Alien_RageХит недели

RePack

Resident Evil 21

ИГРА 18+

pack

RePack

jed

RePack

fifa19

RePack

Assassins Creed: Odyssey

RePack

NEED FOR SPEED™ PAYBACK

4 сезон

9 сезон

Бесстыжие 9 сезон

Все сериалы

все сериалы на PB.wtf

RePack

FAR CRY 5
  

Дорога на гиблый байрак / Lost Gully Road (Донна МакРей) [2017, ужасы, триллер, WEB-DL 720p] MVO ["Синема УС"] pb.wtf

Дорога на гиблый байрак через торрент pb.wtf

Размер: 2.68 GB | Добавлен: 1 год 2 мес. назад | Торрент скачан:45 раз
Скачать  

16-11-2018 16:36 Дорога на гиблый байрак Скачать торрент  

Дорога на гиблый байрак / Lost Gully RoadГод выпуска: 2017
Страна: Австралия
Жанр: ужасы, триллер
Продолжительность: 01:21:20
Перевод: Любительский (многоголосый) | "Синема УС"
Субтитры: отсутствуют

Режиссер: Донна МакРей

rating

В ролях:

Аделе Перович, Джон Брамптон, Джейн Клифтон, Элуиз Миньон, Александр Каппер, Льюис Ревелл

Описание:

Австралийский готический хоррор о том, как уединившаяся в лесном домике девушка, скрывающаяся от расправы со стороны парня - встречает нечто ужасное и сверхъестественное, то ли медленно сходя с ума, то ли подвергаясь нападениям агрессивной сущности.

Качество: WEB-DL 720p
Формат: MKV

Видео: h.264, 4 329 Кбит/с, 1280x536
Аудио#1: Русский, (AC3, 2 ch, 384 Кбит/с)
скриншот  скриншот  скриншот  

Общее
Уникальный идентификатор : 234814065550476212385080610187600891223 (0xB0A78B44F0BDB4FAB72CE22D031E8D57)
Полное имя : D:\LOST.GULLY.ROAD.2O17.Pk.WEB-DL.72Op.mkv
Формат : Matroska
Версия формата : Version 2
Размер файла : 2,68 Гбайт
Продолжительность : 1 ч. 21 м.
Режим общего битрейта : Переменный
Общий поток : 4715 Кбит/сек
Дата кодирования : UTC 2018-11-15 06:23:18
Программа кодирования : mkvmerge v8.3.0 ('Over the Horizon') 64bit
Библиотека кодирования : libebml v1.3.1 + libmatroska v1.4.2

Видео
Идентификатор : 1
Формат : AVC
Формат/Информация : Advanced Video Codec
Профиль формата : High@L4.1
Параметр CABAC формата : Да
Параметр RefFrames формата : 4 кадра
Идентификатор кодека : V_MPEG4/ISO/AVC
Продолжительность : 1 ч. 21 м.
Вид битрейта : Переменный
Битрейт : 4329 Кбит/сек
Максимальный битрейт : 5000 Кбит/сек
Ширина : 1280 пикселей
Высота : 536 пикселей
Соотношение сторон : 2,40:1
Режим частоты кадров : Постоянный
Частота кадров : 23,976 (24000/1001) кадра/сек
Стандарт вещания : Component
Цветовое пространство : YUV
Субдискретизация насыщенности : 4:2:0
Битовая глубина : 8 бит
Тип развёртки : Прогрессивная
Бит/(Пиксели*Кадры) : 0.258
Размер потока : 2,41 Гбайт (90%)
Default : Да
Forced : Нет
Цветовой диапазон : Limited
Основные цвета : BT.709
Характеристики трансфера : BT.709
Коэффициенты матрицы : BT.709

Аудио
Идентификатор : 2
Формат : AC-3
Формат/Информация : Audio Coding 3
Расширение режима : CM (complete main)
Параметр Endianness формата : Big
Идентификатор кодека : A_AC3
Продолжительность : 1 ч. 21 м.
Вид битрейта : Постоянный
Битрейт : 384 Кбит/сек
Каналы : 2 канала
Расположение каналов : Front: L R
Частота : 48,0 КГц
Частота кадров : 31,250 кадров/сек (1536 spf)
Метод сжатия : С потерями
Размер потока : 223 Мбайт (8%)
Default : Да
Forced : Нет

pb.wtf



Скачать Дорога на гиблый байрак через торрент https://d.radikal.ru/d07/1811/25/abdee148a58c.jpg Скачать фильм Дорога на гиблый байрак через торрент бесплантно в хорошем качестве Описание: Австралийский готический хоррор о том, как уединившаяся в лесном домике девушка, скрывающаяся от расправы со стороны парня - ... 10 10 3
Торрент: Зарегистрирован [2018-11-16 16:36] · скачан: 45 раз
Статус: T временная
Размер: 2.68 GB
Как cкачать? Как скачать Дорога на гиблый байрак через торрент | qTorrent

% Раздел Тема Автор DL S | L
T Фильмы (мультфильмы) cо спонсором показа (Новинки AVI/MKV) [ 1.35 GB ] Дорога на гиблый байрак / Lost Gully Road [2017 WEB-DLRip] MVO ["Синема УС"] bober100 Скачать
1 | 0

28-11-2019 20:33  

Отключить всю рекламу на сайте

    Дорогой пользователь! Огромная просьба, поблагодарите релизера, оцените раздачу и оставьте свои комментарий, если Вы скачали Дорога на гиблый байрак через торрент бесплатно! Внесите свою лепту в развитие PiratBit!
    Комментировать посты могут только пользователи прошедшие не сложную регистрацию
    Показать сообщения:    

    Дорога на гиблый байрак через торрент
    Скачать бесплатно Дорога на гиблый байрак
    Дорога на гиблый байрак скачать торрент
    Дорога на гиблый байрак смотреть онлайн
    Cкачать фильм Дорога на гиблый байрак бесплатно
    Дорога на гиблый байрак скачать торрент в хорошем качестве
    Дорога на гиблый байрак смотреть онлайн бесплатно в хорошем качестве


    Вы не можете начинать темы
    Вы не можете отвечать на сообщения
    Вы не можете редактировать свои сообщения
    Вы не можете удалять свои сообщения
    Вы не можете голосовать в опросах
    Вы не можете прикреплять файлы к сообщениям
    Вы можете скачивать файлы