Ссылка на приватное зеркало нашего сайта всего за 1$. Внимание количество ограничено!!!

2 сезон

iTunes

1 сезон

1

2 сезон

2 сезон

iTunes

1 сезон

RePack

30

Ultimate

ВАЖНО

ИГРА 18+

pack

RePack

MK11
pack

Забери бонус

RePack

jed

!!Акция!!

Alien_Rage

RePack

fifa19

RePack

Assassins Creed: Odyssey

RePack

NEED FOR SPEED™ PAYBACK

4 сезон

9 сезон

Бесстыжие 9 сезон

Все сериалы

все сериалы на PB.wtf

RePack

FAR CRY 5
  

Морской Пехотинец 6: Ближний Бой / The Marine 6: Close Quarters (Джеймс Нанн) [2018, Боевик, драма, BD Remux 1080p] MVO [Лицензия] pb.wtf

Морской Пехотинец 6: Ближний Бой через торрент pb.wtf

Размер: 16.63 GB | Добавлен: 2 года назад | Торрент скачан:13 раз
Скачать  

16-11-2018 16:57 Морской Пехотинец 6: Ближний Бой Скачать торрент  

Морской Пехотинец 6: Ближний Бой / The Marine 6: Close Quarters
Год выпуска: 2018
Страна: США
Жанр: Боевик, драма
Продолжительность: 01:25:25
Перевод: Профессиональный многоголосый | Лицензия
Субтитры: Русские (Full), английские

Режиссер: Джеймс Нанн

rating

В ролях:

Майк Мизанин, Шон Майклз, Ребекка Куинн, Луиза Конолли-Бёрнхем, Теренс Мэйнард, Тим Вудворд, Мартин Форд, Анна Деметриу, Майкл Хиггс, Дэниэл Адегбойега

Описание:

Джейк Картер и его бывший коллега-морпех Люк Трэппер объединяют усилия, чтобы спасти похищенную девушку от банды международных преступников во главе с Мэдди Хейс.

Качество: BD Remux 1080p | Исходник: The.Marine.6.Close.Quarters.2018.COMPLETE.BLURAY-PCH (Thanks!)
Формат: MKV

Видео: MPEG-4 AVC, 1920x1080, 24.9 Mbit/s, 23.976 fps
Аудио#1: 48 kHz, AC3, 5.1, 640 Kbps | Лицензия | RUS |
Аудио#2: 48 kHz, DTS-HD MA, 5.1, 2293 Kbps | Оригинал | ENG |
скриншот  скриншот  скриншот  скриншот  скриншот  

General
Unique ID : 232331877511382088453024322518294445043 (0xAEC97DF3490407E9C92F1D33E7EFBBF3)
Complete name : D:Video111The.Marine.6.Close.Quarters.2018.BDREMUX.1080p.selezen.mkv
Format : Matroska
Format version : Version 4
File size : 16.6 GiB
Duration : 1 h 25 min
Overall bit rate mode : Variable
Overall bit rate : 27.9 Mb/s
Movie name : The Marine 6 Close Quarters 2018 from селезень
Encoded date : UTC 2018-11-16 16:38:55
Writing application : mkvmerge v28.2.0 ('The Awakening') 64-bit
Writing library : libebml v1.3.6 + libmatroska v1.4.9

Video
ID : 1
Format : AVC
Format/Info : Advanced Video Codec
Format profile : High@L4.1
Format settings : CABAC / 2 Ref Frames
Format settings, CABAC : Yes
Format settings, ReFrames : 2 frames
Format settings, GOP : M=1, N=10
Codec ID : V_MPEG4/ISO/AVC
Duration : 1 h 25 min
Bit rate mode : Variable
Bit rate : 24.9 Mb/s
Width : 1 920 pixels
Height : 1 080 pixels
Display aspect ratio : 16:9
Frame rate mode : Constant
Frame rate : 23.976 (24000/1001) FPS
Color space : YUV
Chroma subsampling : 4:2:0
Bit depth : 8 bits
Scan type : Progressive
Bits/(Pixel*Frame) : 0.501
Stream size : 14.9 GiB (89%)
Language : English
Default : Yes
Forced : No

Audio #1
ID : 2
Format : AC-3
Format/Info : Audio Coding 3
Commercial name : Dolby Digital
Codec ID : A_AC3
Duration : 1 h 25 min
Bit rate mode : Constant
Bit rate : 640 kb/s
Channel(s) : 6 channels
Channel layout : L R C LFE Ls Rs
Sampling rate : 48.0 kHz
Frame rate : 31.250 FPS (1536 SPF)
Bit depth : 16 bits
Compression mode : Lossy
Stream size : 391 MiB (2%)
Title : Dub [License]
Language : Russian
Service kind : Complete Main
Default : Yes
Forced : Yes

Audio #2
ID : 3
Format : DTS XLL
Format/Info : Digital Theater Systems
Commercial name : DTS-HD Master Audio
Codec ID : A_DTS
Duration : 1 h 25 min
Bit rate mode : Variable
Bit rate : 2 293 kb/s
Channel(s) : 6 channels
Channel layout : C L R Ls Rs LFE
Sampling rate : 48.0 kHz
Frame rate : 93.750 FPS (512 SPF)
Bit depth : 16 bits
Compression mode : Lossless
Stream size : 1.37 GiB (8%)
Title : Original
Language : English
Default : No
Forced : No

Text #1
ID : 4
Format : UTF-8
Codec ID : S_TEXT/UTF8
Codec ID/Info : UTF-8 Plain Text
Duration : 1 h 24 min
Bit rate : 61 b/s
Count of elements : 881
Stream size : 38.3 KiB (0%)
Title : Full
Language : Russian
Default : No
Forced : No

Text #2
ID : 5
Format : UTF-8
Codec ID : S_TEXT/UTF8
Codec ID/Info : UTF-8 Plain Text
Duration : 1 h 19 min
Bit rate : 45 b/s
Count of elements : 915
Stream size : 26.7 KiB (0%)
Language : English
Default : No
Forced : No

Menu
00:00:00.000 : :00:00:00.000
00:06:33.852 : :00:06:33.852
00:10:38.888 : :00:10:38.888
00:13:46.075 : :00:13:46.075
00:19:49.480 : :00:19:49.480
00:27:46.582 : :00:27:46.582
00:31:34.059 : :00:31:34.059
00:37:33.626 : :00:37:33.626
00:41:17.058 : :00:41:17.058
00:46:43.926 : :00:46:43.926
00:52:13.839 : :00:52:13.839
00:57:31.323 : :00:57:31.323
01:02:05.430 : :01:02:05.430
01:08:02.745 : :01:08:02.745
01:15:21.267 : :01:15:21.267
01:18:08.684 : :01:18:08.684

pb.wtf



Скачать Морской Пехотинец 6: Ближний Бой через торрент http://img11.lostpic.net/2018/11/16/8e585422b5b877fbc9e6983ea190a972.jpg Скачать фильм Морской Пехотинец 6: Ближний Бой через торрент бесплантно в хорошем качестве Описание: Джейк Картер и его бывший коллега-морпех Люк Трэппер объединяют усилия, чтобы спасти похищенную девушку от банды международных ... 10 10 3
Торрент: Зарегистрирован [2018-11-16 16:57] · скачан: 13 раз
Статус: √ проверено
Размер: 16.63 GB
Как cкачать? Как скачать Морской Пехотинец 6: Ближний Бой через торрент | qTorrent

% Раздел Тема Автор DL S | L
Фильмы 2018 [DVDrip, WEB-DLRip, HDrip] (DUB, MVO) [ 1.46 GB ] Морской Пехотинец 6: Ближний Бой / The Marine 6: Close Quarters [2018 BDRip] MVO [] Twi7ter Скачать
1 | 0
Фильмы 2018 [DVDrip, WEB-DLRip, HDrip] (DUB, MVO) [ 1.46 GB ] Морской Пехотинец 6: Ближний Бой / The Marine 6: Close Quarters [2018 BDRip] MVO [ BD EUR] bober100 Скачать
1 | 0
Фильмы 2018 [DVDrip, WEB-DLRip, HDrip] (DUB, MVO) [ 745 MB ] Морской Пехотинец 6: Ближний Бой / The Marine 6: Close Quarters [2018 BDRip] MVO [ BD EUR] bober100 Скачать
1 | 0
Фильмы [HD 720p, 1080p] (Хороший звук DUB, MVO) [ 8.45 GB ] Морской Пехотинец 6: Ближний Бой / The Marine 6: Close Quarters [2018 BDRip 1080p] MVO [] bober100 Скачать
1 | 0
Фильмы (Blu-ray, BD-Remux, HDDVD) [ 22.93 GB ] Морской Пехотинец 6: Ближний Бой / The Marine 6: Close Quarters [2018 Blu-ray EUR 1080p] MVO [] bober100 Скачать
1 | 0
Фильмы (WEB-DL 720p, 1080p) [ 3.19 GB ] Морской Пехотинец 6: Ближний Бой / The Marine 6: Close Quarters [2018 WEB-DL 1080p] [MVO] killermax2013 Скачать
1 | 0

28-11-2019 20:33  

Отключить всю рекламу на сайте

    Дорогой пользователь! Огромная просьба, поблагодарите релизера, оцените раздачу и оставьте свои комментарий, если Вы скачали Морской Пехотинец 6: Ближний Бой через торрент бесплатно! Внесите свою лепту в развитие PiratBit!
    Комментировать посты могут только пользователи прошедшие не сложную регистрацию
    Показать сообщения:    

    Морской Пехотинец 6: Ближний Бой через торрент
    Скачать бесплатно Морской Пехотинец 6: Ближний Бой
    Морской Пехотинец 6: Ближний Бой скачать торрент
    Морской Пехотинец 6: Ближний Бой смотреть онлайн
    Cкачать фильм Морской Пехотинец 6: Ближний Бой бесплатно
    Морской Пехотинец 6: Ближний Бой скачать торрент в хорошем качестве
    Морской Пехотинец 6: Ближний Бой смотреть онлайн бесплатно в хорошем качестве


    Вы не можете начинать темы
    Вы не можете отвечать на сообщения
    Вы не можете редактировать свои сообщения
    Вы не можете удалять свои сообщения
    Вы не можете голосовать в опросах
    Вы не можете прикреплять файлы к сообщениям
    Вы можете скачивать файлы