Ссылка на приватное зеркало всего за 1$. Внимание количество ограничено!!!

OK

1+1

iTunes

мы

OK

1

WEB-DLRip

Джокер

Пифагор

Ведьмак / The Witcher сериал

Лицензия

ПШазам

ОК

Оно 2

iTunes

30
pack

Вам бонус

ВАЖНО

!!Акция!!

Alien_RageХит недели

RePack

Resident Evil 21

ИГРА 18+

pack

RePack

jed

!!Акция!!

Alien_Rage

RePack

fifa19

RePack

Assassins Creed: Odyssey

RePack

NEED FOR SPEED™ PAYBACK

4 сезон

9 сезон

Бесстыжие 9 сезон

Все сериалы

все сериалы на PB.wtf

RePack

FAR CRY 5
  

Баллада Бастера Скраггса / The Ballad of Buster Scruggs (Итан Коэн, Джоэл Коэн) [2018, мюзикл, драма, мелодрама, комедия, детектив, вестерн, WEBRip 720p] DUB [АРК-ТВ Studio & VSI International] pb.wtf

Баллада Бастера Скраггса через торрент pb.wtf

Размер: 3.44 GB | Добавлен: 1 год 2 мес. назад | Торрент скачан:219 раз
Скачать  

16-11-2018 17:17 Баллада Бастера Скраггса Скачать торрент  

Баллада Бастера Скраггса / The Ballad of Buster Scruggs
Год выпуска: 2018
Страна: США
Жанр: мюзикл, драма, мелодрама, комедия, детектив, вестерн
Продолжительность: 02:13:18
Перевод: Дублированный | АРК-ТВ Studio & VSI International
Субтитры: Russian (Forced, Full), English (SDH) и другие

Режиссер: Итан Коэн, Джоэл Коэн

rating


В ролях:

Лиам Нисон (Impresario (segment 'Meal Ticket')), Джеймс Франко (Cowboy (segment 'Near Algodones')), Дэвид Крамхолц (Frenchman in Saloon (segment 'The Ballad of Buster Scruggs')), Клэнси Браун, Зои Казан (Alice Longabaugh (segment 'The Gal Who Got Rattled)), Брендан Глисон (Irishman (segment 'The Mortal Remains')), Гарри Меллинг (Harrison (segment 'The Ballad of Buster Scruggs')), Стивен Рут, Том Уэйтс (Prospector (segment 'All Gold Canyon')), Ралф Айнесон (The Man In Black (segment 'Near Algodones')), Тайн Дейли (Lady (segment 'The Mortal Remains')), Мэттью Уиллиг (Hard Man #3 (segment 'The Ballad of Buster Scruggs'))

Описание:

События разворачиваются на Диком Западе в маленьких захолустных городках среди бескрайних американских прерий и высокогорных равнин. В этом суровом мире, где каждый сам за себя, царит один закон: выживает сильнейший.

Качество: WEBRip 720p
Формат: MKV

Видео: 1280x720 at 23.976 fps, MPEG-4 AVC, ~3000 kbps avg
Аудио#1: Russian: 48 kHz, AC3, 3/2 (L,C,R,l,r) + LFE ch, ~384 kbps avg |Дубляж, АРК-ТВ Studio & VSI International|
Аудио#2: English: 48 kHz, AC3, 3/2 (L,C,R,l,r) + LFE ch, ~384 kbps avg
скриншот  скриншот  скриншот  скриншот  

Общее
Уникальный идентификатор : 329923686209261865082685456323277717755 (0xF834FD9C1C3A1E62E7A9BC59D7AB80FB)
Полное имя : D:\Баллада Бастера Скраггса. 2018. Dub. EniaHD (WEB-DLRip 720p).mkv
Формат : Matroska
Версия формата : Version 4 / Version 2
Размер файла : 3,44 Гбайт
Продолжительность : 2 ч. 13 м.
Режим общего битрейта : Переменный
Общий поток : 3692 Кбит/сек
Название фильма : The Ballad of Buster Scruggs
Дата кодирования : UTC 2018-11-16 15:40:22
Программа кодирования : mkvmerge v25.0.0 ('Prog Noir') 64-bit
Библиотека кодирования : libebml v1.3.6 + libmatroska v1.4.9

Видео
Идентификатор : 1
Формат : AVC
Формат/Информация : Advanced Video Codec
Профиль формата : Main@L3.1
Параметр CABAC формата : Да
Параметр RefFrames формата : 3 кадра
Идентификатор кодека : V_MPEG4/ISO/AVC
Продолжительность : 2 ч. 13 м.
Вид битрейта : Переменный
Битрейт : 2851 Кбит/сек
Номинальный битрейт : 3000 Кбит/сек
Максимальный битрейт : 4500 Кбит/сек
Ширина : 1280 пикселей
Высота : 720 пикселей
Соотношение сторон : 16:9
Режим частоты кадров : Постоянный
Частота кадров : 23,976 (24000/1001) кадра/сек
Цветовое пространство : YUV
Субдискретизация насыщенности : 4:2:0
Битовая глубина : 8 бит
Тип развёртки : Прогрессивная
Бит/(Пиксели*Кадры) : 0.129
Размер потока : 2,65 Гбайт (77%)
Библиотека кодирования : x264 core 148 r2715 7e75228
Настройки программы : cabac=1 / ref=3 / deblock=1:0:0 / analyse=0x1:0x111 / me=umh / subme=10 / psy=1 / psy_rd=1.00:0.00 / mixed_ref=1 / me_range=24 / chroma_me=1 / trellis=2 / 8x8dct=0 / cqm=0 / deadzone=21,11 / fast_pskip=1 / chroma_qp_offset=-2 / threads=8 / lookahead_threads=1 / sliced_threads=0 / nr=0 / decimate=1 / interlaced=0 / bluray_compat=0 / stitchable=1 / constrained_intra=0 / bframes=2 / b_pyramid=0 / b_adapt=2 / b_bias=0 / direct=3 / weightb=1 / open_gop=0 / weightp=2 / keyint=48 / keyint_min=25 / scenecut=0 / intra_refresh=0 / rc_lookahead=48 / rc=2pass / mbtree=1 / bitrate=3000 / ratetol=1.0 / qcomp=0.50 / qpmin=6 / qpmax=51 / qpstep=4 / cplxblur=20.0 / qblur=0.5 / vbv_maxrate=4500 / vbv_bufsize=6000 / nal_hrd=vbr / filler=0 / ip_ratio=1.40 / aq=1:1.00
Язык : English
Default : Да
Forced : Нет

Аудио #1
Идентификатор : 2
Формат : AC-3
Формат/Информация : Audio Coding 3
Расширение режима : CM (complete main)
Параметр Endianness формата : Big
Идентификатор кодека : A_AC3
Продолжительность : 2 ч. 13 м.
Вид битрейта : Постоянный
Битрейт : 384 Кбит/сек
Каналы : 6 каналов
Расположение каналов : Front: L C R, Side: L R, LFE
Частота : 48,0 КГц
Частота кадров : 31,250 кадров/сек (1536 spf)
Метод сжатия : С потерями
Размер потока : 366 Мбайт (10%)
Заголовок : ARC-TV Studio
Язык : Russian
Default : Да
Forced : Нет

Аудио #2
Идентификатор : 3
Формат : AC-3
Формат/Информация : Audio Coding 3
Расширение режима : CM (complete main)
Параметр Endianness формата : Big
Идентификатор кодека : A_AC3
Продолжительность : 2 ч. 13 м.
Вид битрейта : Постоянный
Битрейт : 384 Кбит/сек
Каналы : 6 каналов
Расположение каналов : Front: L C R, Side: L R, LFE
Частота : 48,0 КГц
Частота кадров : 31,250 кадров/сек (1536 spf)
Метод сжатия : С потерями
Размер потока : 366 Мбайт (10%)
Язык : English
Default : Нет
Forced : Нет

Текст #1
Идентификатор : 4
Формат : UTF-8
Идентификатор кодека : S_TEXT/UTF8
Идентификатор кодека/Информация : UTF-8 Plain Text
Заголовок : Forced
Язык : Russian
Default : Да
Forced : Да

Текст #2
Идентификатор : 5
Формат : UTF-8
Идентификатор кодека : S_TEXT/UTF8
Идентификатор кодека/Информация : UTF-8 Plain Text
Язык : Russian
Default : Нет
Forced : Нет

Текст #3
Идентификатор : 6
Формат : UTF-8
Идентификатор кодека : S_TEXT/UTF8
Идентификатор кодека/Информация : UTF-8 Plain Text
Язык : English
Default : Нет
Forced : Нет

pb.wtf



Скачать Баллада Бастера Скраггса через торрент https://a.radikal.ru/a13/1811/f3/a05f23640775.jpg Скачать фильм Баллада Бастера Скраггса через торрент бесплантно в хорошем качестве Описание: События разворачиваются на Диком Западе в маленьких захолустных городках среди бескрайних американских прерий и высокогорных ... 9.7 10 6
Торрент: Зарегистрирован [2018-11-16 17:17] · скачан: 219 раз
Статус: # сомнительно
Размер: 3.44 GB
Как cкачать? Как скачать Баллада Бастера Скраггса через торрент | qTorrent

% Раздел Тема Автор DL S | L
Фильмы 2018 [DVDrip, WEB-DLRip, HDrip] (DUB, MVO) [ 1.46 GB ] Баллада Бастера Скраггса / The Ballad of Buster Scruggs [2018 мюзикл WEB-DLRip] [MVO] killermax2013 Скачать
5 | 0
Фильмы (WEB-DL 720p, 1080p) [ 5.97 GB ] Баллада Бастера Скраггса / The Ballad of Buster Scruggs [2018 мюзикл WEBRip 1080p] DUB [Good People] bober100 Скачать
2 | 0
Фильмы 2018 [DVDrip, WEB-DLRip, HDrip] (DUB, MVO) [ 1.44 GB ] Баллада Бастера Скраггса / The Ballad of Buster Scruggs [2018 мюзикл WEBRip] DUB [АРК-ТВ Studio + VSI International] -Lexx- Скачать
5 | 0
Фильмы (WEB-DL 720p, 1080p) [ 6.33 GB ] Баллада Бастера Скраггса / The Ballad of Buster Scruggs [2018 мюзикл WEBRip 1080p] MVO [NewStudio] +DUB [АРК-ТВ Studio & VSI International] bober100 Скачать
6 | 0
Фильмы 2018 [DVDrip, WEB-DLRip, HDrip] (DUB, MVO) [ 2.18 GB ] Баллада Бастера Скраггса / The Ballad of Buster Scruggs [2018 мюзикл WEBRip] DUB [АРК-ТВ Studio & VSI International] bober100 Скачать
4 | 0

28-11-2019 20:33  

Отключить всю рекламу на сайте

    Дорогой пользователь! Огромная просьба, поблагодарите релизера, оцените раздачу и оставьте свои комментарий, если Вы скачали Баллада Бастера Скраггса через торрент бесплатно! Внесите свою лепту в развитие PiratBit!
    Комментировать посты могут только пользователи прошедшие не сложную регистрацию
    Показать сообщения:    

    Баллада Бастера Скраггса через торрент
    Скачать бесплатно Баллада Бастера Скраггса
    Баллада Бастера Скраггса скачать торрент
    Баллада Бастера Скраггса смотреть онлайн
    Cкачать фильм Баллада Бастера Скраггса бесплатно
    Баллада Бастера Скраггса скачать торрент в хорошем качестве
    Баллада Бастера Скраггса смотреть онлайн бесплатно в хорошем качестве


    Вы не можете начинать темы
    Вы не можете отвечать на сообщения
    Вы не можете редактировать свои сообщения
    Вы не можете удалять свои сообщения
    Вы не можете голосовать в опросах
    Вы не можете прикреплять файлы к сообщениям
    Вы можете скачивать файлы