Ссылка на приватное зеркало всего за 1$. Внимание количество ограничено!!!

iTunes

iTunes

iTunes

1

iTunes

iTunes

iTunes

WEBRip

iTunes

30
pack

$ от Little Big

ВАЖНО

!!Акция!!

Alien_RageХит недели

RePack

Resident Evil 21

ИГРА 18+

pack

RePack

jed

!!Акция!!

Alien_Rage

RePack

fifa19

RePack

Assassins Creed: Odyssey

RePack

NEED FOR SPEED™ PAYBACK

4 сезон

9 сезон

Бесстыжие 9 сезон

Все сериалы

все сериалы на PB.wtf

RePack

FAR CRY 5
  

Проклятие пугала / Curse of the Scarecrow (Луиса Уоррен) [2018, Ужасы, WEB-DL 720p] MVO ["Синема УС"] pb.wtf

Проклятие пугала через торрент pb.wtf

Размер: 2.82 GB | Добавлен: 1 год 8 мес. назад | Торрент скачан:27 раз
Скачать  

16-11-2018 19:19 Проклятие пугала Скачать торрент  

Проклятие пугала / Curse of the ScarecrowГод выпуска: 2018
Страна: Великобритания
Жанр: Ужасы
Продолжительность: 01:25:34
Перевод: Любительский (многоголосый) | "Синема УС"
Субтитры: отсутствуют

Режиссер: Луиса Уоррен

rating

В ролях:

Кейт Грир, Луиса Уоррен, Кассандра Френч, Тим Фриман, Даррелл Григгс, Тиффани-Эллен Робинсон, Томми Вилес

Описание:

Став свидетелями убийства своих родителей, Джун и Карл всю жизнь хранили страшную тайну, в которую никто бы не поверил. Много лет спустя Джун вернулась в фамильный дом после странного самоубийства ее брата. Вскоре Джун понимает, что легенда правдива, и пугало, убившее ее родителей, снова ожило и готово мстить городу.

Качество: WEB-DL 720p
Формат: MKV

Видео: h.264, 4 331 Кбит/с, 1280x670
Аудио#1: Русский, (AC3, 2 ch, 384 Кбит/с)
скриншот  скриншот  скриншот  

Общее
Уникальный идентификатор : 217832704915724821259297486771487250360 (0xA3E10D8C95C02E2D9A69E8F6592C17B8)
Полное имя : D:\Curse.of.the.Scarecrow.2O18.P.WEB-DL.72Op.mkv
Формат : Matroska
Версия формата : Version 2
Размер файла : 2,82 Гбайт
Продолжительность : 1 ч. 25 м.
Режим общего битрейта : Переменный
Общий поток : 4717 Кбит/сек
Дата кодирования : UTC 2018-11-15 05:14:58
Программа кодирования : mkvmerge v8.3.0 ('Over the Horizon') 64bit
Библиотека кодирования : libebml v1.3.1 + libmatroska v1.4.2

Видео
Идентификатор : 1
Формат : AVC
Формат/Информация : Advanced Video Codec
Профиль формата : High@L4.1
Параметр CABAC формата : Да
Параметр RefFrames формата : 4 кадра
Идентификатор кодека : V_MPEG4/ISO/AVC
Продолжительность : 1 ч. 25 м.
Вид битрейта : Переменный
Битрейт : 4331 Кбит/сек
Максимальный битрейт : 5000 Кбит/сек
Ширина : 1280 пикселей
Высота : 670 пикселей
Соотношение сторон : 1,910
Режим частоты кадров : Постоянный
Частота кадров : 23,976 (24000/1001) кадра/сек
Стандарт вещания : Component
Цветовое пространство : YUV
Субдискретизация насыщенности : 4:2:0
Битовая глубина : 8 бит
Тип развёртки : Прогрессивная
Бит/(Пиксели*Кадры) : 0.206
Размер потока : 2,53 Гбайт (90%)
Default : Да
Forced : Нет
Цветовой диапазон : Limited
Основные цвета : BT.709
Характеристики трансфера : BT.709
Коэффициенты матрицы : BT.709

Аудио
Идентификатор : 2
Формат : AC-3
Формат/Информация : Audio Coding 3
Расширение режима : CM (complete main)
Параметр Endianness формата : Big
Идентификатор кодека : A_AC3
Продолжительность : 1 ч. 25 м.
Вид битрейта : Постоянный
Битрейт : 384 Кбит/сек
Каналы : 2 канала
Расположение каналов : Front: L R
Частота : 48,0 КГц
Частота кадров : 31,250 кадров/сек (1536 spf)
Метод сжатия : С потерями
Размер потока : 235 Мбайт (8%)
Default : Да
Forced : Нет

pb.wtf



Скачать Проклятие пугала через торрент https://d.radikal.ru/d42/1811/24/a3e843ae5d0b.jpg Скачать фильм Проклятие пугала через торрент бесплантно в хорошем качестве Описание: Став свидетелями убийства своих родителей, Джун и Карл всю жизнь хранили страшную тайну, в которую никто бы не поверил. Много лет ... 10 10 3
Торрент: Зарегистрирован [2018-11-16 19:19] · скачан: 27 раз
Статус: T временная
Размер: 2.82 GB
Как cкачать? Как скачать Проклятие пугала через торрент | qTorrent

% Раздел Тема Автор DL S | L
T Фильмы (мультфильмы) cо спонсором показа (Новинки AVI/MKV) [ 1.37 GB ] Проклятие пугала / Curse of the Scarecrow [2018 WEB-DLRip] MVO ["Синема УС"] bober100 Скачать
1 | 0

28-11-2019 20:33  

Отключить всю рекламу на сайте

17-11-2018 10:19 Проклятие пугала Скачать торрент  

Хмммм...а я думал,что Главное Пугало для британцев-Россия.. pb.wtf



    Дорогой пользователь! Огромная просьба, поблагодарите релизера, оцените раздачу и оставьте свои комментарий, если Вы скачали Проклятие пугала через торрент бесплатно! Внесите свою лепту в развитие PiratBit!
    Комментировать посты могут только пользователи прошедшие не сложную регистрацию
    Показать сообщения:    

    Проклятие пугала через торрент
    Скачать бесплатно Проклятие пугала
    Проклятие пугала скачать торрент
    Проклятие пугала смотреть онлайн
    Cкачать фильм Проклятие пугала бесплатно
    Проклятие пугала скачать торрент в хорошем качестве
    Проклятие пугала смотреть онлайн бесплатно в хорошем качестве


    Вы не можете начинать темы
    Вы не можете отвечать на сообщения
    Вы не можете редактировать свои сообщения
    Вы не можете удалять свои сообщения
    Вы не можете голосовать в опросах
    Вы не можете прикреплять файлы к сообщениям
    Вы можете скачивать файлы