Ссылка на приватное зеркало нашего сайта всего за 1$. Внимание количество ограничено!!!

2 сезон

iTunes

1 сезон

1

2 сезон

2 сезон

iTunes

1 сезон

RePack

30

Ultimate

ВАЖНО

ИГРА 18+

pack

RePack

MK11
pack

Забери бонус

RePack

jed

!!Акция!!

Alien_Rage

RePack

fifa19

RePack

Assassins Creed: Odyssey

RePack

NEED FOR SPEED™ PAYBACK

4 сезон

9 сезон

Бесстыжие 9 сезон

Все сериалы

все сериалы на PB.wtf

RePack

FAR CRY 5
  

Стэн против сил зла / Stan Against Evil / Сезон: 3 / Серии 1-8 из 8 (Джек Бишоп / Jack Bishop, Justin Nijm) [2018, США, ужасы, комедия, WEB-DLRip] MVO [BaibaKo] pb.wtf

Стэн против сил зла через торрент pb.wtf

Размер: 1.98 GB | Добавлен: 2 года назад | Торрент скачан:35 раз
Скачать  

17-11-2018 00:50 Стэн против сил зла Скачать торрент  

Стэн против сил зла / Stan Against Evil


  • Год выпуска: 2018
  • Страна: США
  • Жанр: ужасы, комедия
  • Продолжительность: ~ 00:22:00 (Серия)
  • Перевод: Профессиональный многоголосый [BaibaKo]
  • Режиссер: Джек Бишоп / Jack Bishop, Justin Nijm
  • В ролях:

    Джон К. МакГинли (Stanley Miller), Нат Муни (Deputy Leon Drinkwater), Дебора Бэйкер мл. (Denise Miller), Джанет Вэрни (Evie Barret), Mick Ignis (Stella Stanas), Даниэль Фелан (Karen), Грегори Нассиф Ст. Джон (Father Mike), Чарльз Грин (Farmer), Sallye McDougald Hooks (Stella Stanis), Д.Л. Андерсон (Ida Putnam), Ник Армстронг (Cliff), Мика Шэйн Боллинджер (Craig)


  • Сварливый и принципиальный шериф городка Нью-Гэмпшир Стэнли Миллер теряет должность после того, как устраивает скандал в самый неподходящий момент — на похоронах собственной жены. Вскоре новый шериф Иви Баррет узнает, что городу угрожают свирепые демоны. Она уговаривает Стэнли помочь ей отразить атаку монстров. Героям сериала необходимо преодолеть разногласия и выработать эффективный план спасения мирных жителей, однако сделать это оказывается не так-то просто.
  • Рейтинг:

    rating
  • Качество: WEB-DLRip
  • Формат: :AVI
  • Видео кодек: XviD
  • Аудио кодек: MP3
  • Видео: 1493 Кбит/сек, 720*400 (16:9), в 23,976 (24000/1001) кадра/сек, MPEG-4 Visual (XviD)
  • Аудио №1: русский 192 Кбит/сек, 48,0 КГц, 2 канала, MPEG Audio (MP3) |[BaibaKo]|
  • Релиз от: GEKADOL

    Внимание! Раздача ведётся путём добавления новых серий; при каждом добавлении создаётся новый торрент. Чтобы начать докачку новой серии, пользователям необходимо сделать следующее:
    (1) остановить скачивание,
    (2) удалить старый торрент у себя из клиента (старые серии удалять не надо),
    (3) скачать новый торрент и запустить его у себя в клиенте вместо старого, при этом указать клиенту путь в старую папку куда и должно происходить скачивание новых серий.
    Ваш клиент при этом должен произвести хеширование (проверку) старой папки (если не производит сам - помогите ему сделать это), и будет докачивать только те серии которых у вас ещё нет. Старые серии при этом не удаляются, а продолжают раздаваться!
    Eсли вы уже удалили старые серии, то предотвратить повторную закачку старых серий можно, отжав галочку в соответствующих местах при запуске нового торрента. По возможности, желательно не удалять старые серии как можно дольше чтобы релизёр не столько продолжал раздавать старые серии, а смог сконцентрироваться на новых.
    Общее
    Полное имя : G:\Стэн против сил зла (Stan Against Evil) S.3\Stan.Against.Evil.s03e04.PROPER.WEBRip.XviD.Rus.BaibaKo.avi
    Формат : AVI
    Формат/Информация : Audio Video Interleave
    Размер файла : 260 Мбайт
    Продолжительность : 21 м. 26 с.
    Общий поток : 1698 Кбит/сек
    Программа кодирования : Lavf57.71.100

    Видео
    Идентификатор : 0
    Формат : MPEG-4 Visual
    Профиль формата : Advanced Simple@L5
    Настройки формата : BVOP1
    Параметр BVOP формата : 1
    Параметр QPel формата : Нет
    Параметр GMC формата : Без точки перехода
    Параметр матрицы формата : Default (H.263)
    Идентификатор кодека : XVID
    Идентификатор кодека/Подсказка : XviD
    Продолжительность : 21 м. 26 с.
    Битрейт : 1493 Кбит/сек
    Ширина : 720 пикселей
    Высота : 400 пикселей
    Соотношение сторон : 16:9
    Частота кадров : 23,976 (24000/1001) кадра/сек
    Цветовое пространство : YUV
    Субдискретизация насыщенности : 4:2:0
    Битовая глубина : 8 бит
    Тип развёртки : Прогрессивная
    Метод сжатия : С потерями
    Бит/(Пиксели*Кадры) : 0.216
    Размер потока : 229 Мбайт (88%)
    Библиотека кодирования : XviD 67

    Аудио
    Идентификатор : 1
    Формат : MPEG Audio
    Версия формата : Version 1
    Профиль формата : Layer 3
    Настройки формата : Joint stereo / MS Stereo
    Идентификатор кодека : 55
    Идентификатор кодека/Подсказка : MP3
    Продолжительность : 21 м. 26 с.
    Вид битрейта : Постоянный
    Битрейт : 192 Кбит/сек
    Каналы : 2 канала
    Частота : 48,0 КГц
    Метод сжатия : С потерями
    Размер потока : 29,4 Мбайт (11%)
    Выравнивание : Соединение по промежуткам
    Продолжительность промежутка : 24 мс. (0,58 видеокадр)
    Библиотека кодирования : LAME3.100h‰™˜†k}Ќ"-



    Скриншоты:
    скриншот   скриншот   скриншот   скриншот   скриншот   скриншот   скриншот  
    скриншот  

    Раздача ведётся путём добавления новых серий. Добавлена 7,8 серия (25.11.2018).Просьба перекачать торрент файл.

    pb.wtf



  • Скачать Стэн против сил зла через торрент http://pic1.kartinco.top/images/11/eyctr.jpg Скачать фильм Стэн против сил зла через торрент бесплантно в хорошем качестве qw.png Сварливый и принципиальный шериф городка Нью-Гэмпшир Стэнли Миллер теряет должность после того, как устраивает скандал в самый ... 10 10 4
    Info! Золотая раздача, скачанное не засчитывается.
    Торрент: Зарегистрирован [2018-11-25 00:02] · скачан: 35 раз
    Статус: √ проверено
    Размер: 1.98 GB
    Как cкачать? Как скачать Стэн против сил зла через торрент | qTorrent

    % Раздел Тема Автор DL S | L
    Зарубежные сериалы [ 2.34 GB ] Стэн против сил зла / Stan Against Evil / Сезон: 3 / Серии: 1-8 из 8 [2018 WEB-DLRip] MVO [NewStudio] bober100 Скачать
    1 | 0

    28-11-2019 20:33  

    Отключить всю рекламу на сайте

      Дорогой пользователь! Огромная просьба, поблагодарите релизера, оцените раздачу и оставьте свои комментарий, если Вы скачали Стэн против сил зла через торрент бесплатно! Внесите свою лепту в развитие PiratBit!
      Комментировать посты могут только пользователи прошедшие не сложную регистрацию
      Показать сообщения:    

      Стэн против сил зла через торрент
      Скачать бесплатно Стэн против сил зла
      Стэн против сил зла скачать торрент
      Стэн против сил зла смотреть онлайн
      Cкачать фильм Стэн против сил зла бесплатно
      Стэн против сил зла скачать торрент в хорошем качестве
      Стэн против сил зла смотреть онлайн бесплатно в хорошем качестве


      Вы не можете начинать темы
      Вы не можете отвечать на сообщения
      Вы не можете редактировать свои сообщения
      Вы не можете удалять свои сообщения
      Вы не можете голосовать в опросах
      Вы не можете прикреплять файлы к сообщениям
      Вы можете скачивать файлы