Ссылка на приватное зеркало нашего сайта всего за 1$. Внимание количество ограничено!!!

2 сезон

iTunes

1 сезон

1

iTunes

iTunes

iTunes

1 сезон

RePack

30

ИГРА 18+

pack

ВАЖНО

!!Акция!!

Alien_RageХит недели

RePack

MK11
pack

Забери бонус

RePack

jed

!!Акция!!

Alien_Rage

RePack

fifa19

RePack

Assassins Creed: Odyssey

RePack

NEED FOR SPEED™ PAYBACK

4 сезон

9 сезон

Бесстыжие 9 сезон

Все сериалы

все сериалы на PB.wtf

RePack

FAR CRY 5
  

Убийства по пятницам / Серии: 1-4 из 4 (Карен Захаров) [2018, детектив, WEB-DL 720p] pb.wtf

Убийства по пятницам через торрент pb.wtf

Размер: 4.26 GB | Добавлен: 1 год 11 мес. назад | Торрент скачан:49 раз
Скачать  

17-11-2018 02:32 Убийства по пятницам Скачать торрент  

Убийства по пятницамГод выпуска: 2018
Страна: Россия
Жанр: детектив
Продолжительность: ~00:47:00 серия
Субтитры: отсутствуют

Режиссер: Карен Захаров



В ролях:

Андрей Ильин, Антонина Дивина, Тамара Акулова, Светлана Немоляева, Алёна Яковлева, Юрий Поляк, Константин Соловьев

Описание:

Нина - ботаник. Не в смысле очков и синих чулок, а в самом прямом смысле. Когда городской ботанический сад, где она работала, закрыли, Нина и мечтать не могла, что ей улыбнется такая удача: Владимир Шелехов, бизнесмен, наследник старинного княжеского рода и большой оригинал, приглашает ее на работу в свою роскошную усадьбу вместо сбежавшего садовника. Усадьба - еще и живой музей, туристическая достопримечательность, куда приезжают люди со всей страны. А каждую пятницу для туристов открывается не только сад и несколько комнат с исторической обстановкой, но и весь дом. В одну из таких пятниц Нина становится свидетелем внезапной смерти хозяина усадьбы...

Качество: WEB-DL 720p
Формат: MKV

Видео: 1280x720 at 25.000 fps, MPEG-4 AVC, ~3200 kbps avg
Аудио: Russian: 48 kHz, AC3, 2/0 (L,R) ch, ~192 kbps avg
скриншот  скриншот  скриншот  скриншот  

Общее
Уникальный идентификатор : 215141625027256488785247277241346644617 (0xA1DAC5111D93CFCD9E370751A6255A89)
Полное имя : D:\Ubiystva.po.pyatnicam.2018.WEB-DL.(720p).Getty\Ubiystva.po.pyatnicam.e01.2018.WEB-DL.(720p).Getty.mkv
Формат : Matroska
Версия формата : Version 4 / Version 2
Размер файла : 1,07 Гбайт
Продолжительность : 46 м. 56 с.
Режим общего битрейта : Постоянный
Общий поток : 3278 Кбит/сек
Название фильма : Ubiystva.po.pyatnicam.e01.2018.WEB-DL.(720p).Getty
Дата кодирования : UTC 2018-11-16 20:09:23
Программа кодирования : mkvmerge v7.8.0 ('River Man') 32bit built on Mar 27 2015 16:18:02
Библиотека кодирования : libebml v1.3.1 + libmatroska v1.4.2

Видео
Идентификатор : 1
Формат : AVC
Формат/Информация : Advanced Video Codec
Профиль формата : High@L4.1
Параметр CABAC формата : Да
Параметр RefFrames формата : 4 кадра
Идентификатор кодека : V_MPEG4/ISO/AVC
Продолжительность : 46 м. 56 с.
Вид битрейта : Постоянный
Битрейт : 3200 Кбит/сек
Ширина : 1280 пикселей
Высота : 720 пикселей
Соотношение сторон : 16:9
Режим частоты кадров : Постоянный
Частота кадров : 25,000 кадров/сек
Цветовое пространство : YUV
Субдискретизация насыщенности : 4:2:0
Битовая глубина : 8 бит
Тип развёртки : Прогрессивная
Бит/(Пиксели*Кадры) : 0.139
Размер потока : 1,01 Гбайт (94%)
Default : Да
Forced : Нет

Аудио
Идентификатор : 2
Формат : AC-3
Формат/Информация : Audio Coding 3
Расширение режима : CM (complete main)
Параметр Endianness формата : Big
Идентификатор кодека : A_AC3
Продолжительность : 46 м. 56 с.
Вид битрейта : Постоянный
Битрейт : 192 Кбит/сек
Каналы : 2 канала
Расположение каналов : Front: L R
Частота : 48,0 КГц
Частота кадров : 31,250 кадров/сек (1536 spf)
Метод сжатия : С потерями
Размер потока : 64,5 Мбайт (6%)
Default : Да
Forced : Нет

pb.wtf



Скачать Убийства по пятницам через торрент https://b.radikal.ru/b21/1811/06/cd0a5052f956.png Скачать фильм Убийства по пятницам через торрент бесплантно в хорошем качестве Описание: Нина - ботаник. Не в смысле очков и синих чулок, а в самом прямом смысле. Когда городской ботанический сад, где она работала, ... 10 10 3
Торрент: Зарегистрирован [2018-11-17 02:32] · скачан: 49 раз
Статус: √ проверено
Размер: 4.26 GB
Как cкачать? Как скачать Убийства по пятницам через торрент | qTorrent

% Раздел Тема Автор DL S | L
Наши сериалы [ 2.77 GB ] Убийства по пятницам / Сезон: 2 / Серии: 1-4 из 4 [2019 WEBRip-AVC] aleksan55 Скачать
1 | 0
Наши сериалы [ 2.27 GB ] Убийства по пятницам / Сезон: 2 / Серии: 1-4 из 4 [2019 WEB-DLRip-AVC] bober100 Скачать
1 | 0
Наши сериалы [ 6.53 GB ] Убийства по пятницам / Сезон: 2 / Серии: 1-4 из 4 [2019 WEB-DL 1080p] bober100 Скачать
1 | 0
Наши сериалы [ 2.73 GB ] Убийства по пятницам / Сезон: 2 / Серии: 1-4 из 4 [2019 WEB-DLRip] bober100 Скачать
1 | 0
Наши сериалы [ 2.84 GB ] Убийства по пятницам / Серии: 1-4 из 4 [2018 WEB-DLRip-AVC] bober100 Скачать
1 | 0
Наши сериалы [ 2.41 GB ] Убийства по пятницам / Серии: 1-4 из 4 [2018 SATRip-AVC] aleksan55 Скачать
1 | 0
Наши сериалы [ 2.4 GB ] Убийства по пятницам / Серии: 1-4 из 4 [2018 WEB-DLRip] bober100 Скачать
1 | 0

28-11-2019 20:33  

Отключить всю рекламу на сайте

    Дорогой пользователь! Огромная просьба, поблагодарите релизера, оцените раздачу и оставьте свои комментарий, если Вы скачали Убийства по пятницам через торрент бесплатно! Внесите свою лепту в развитие PiratBit!
    Комментировать посты могут только пользователи прошедшие не сложную регистрацию
    Показать сообщения:    

    Убийства по пятницам через торрент
    Скачать бесплатно Убийства по пятницам
    Убийства по пятницам скачать торрент
    Убийства по пятницам смотреть онлайн
    Cкачать фильм Убийства по пятницам бесплатно
    Убийства по пятницам скачать торрент в хорошем качестве
    Убийства по пятницам смотреть онлайн бесплатно в хорошем качестве


    Вы не можете начинать темы
    Вы не можете отвечать на сообщения
    Вы не можете редактировать свои сообщения
    Вы не можете удалять свои сообщения
    Вы не можете голосовать в опросах
    Вы не можете прикреплять файлы к сообщениям
    Вы можете скачивать файлы