Ссылка на приватное зеркало нашего сайта всего за 1$. Внимание количество ограничено!!!

2 сезон

iTunes

1 сезон

1

2 сезон

2 сезон

iTunes

1 сезон

RePack

30

Ultimate

ВАЖНО

ИГРА 18+

pack

RePack

MK11
pack

Забери бонус

RePack

jed

!!Акция!!

Alien_Rage

RePack

fifa19

RePack

Assassins Creed: Odyssey

RePack

NEED FOR SPEED™ PAYBACK

4 сезон

9 сезон

Бесстыжие 9 сезон

Все сериалы

все сериалы на PB.wtf

RePack

FAR CRY 5
  

Дыши / Breathe / Сезон: 1 / Серии 1-8 из 8 (Маянк Шарма / Mayank Sharma) [2018, Индия, Драма, Триллер, WEBRip] MVO [BaibaKo] pb.wtf

Дыши через торрент pb.wtf

Размер: 3.44 GB | Добавлен: 2 года назад | Торрент скачан:9 раз
Скачать  

17-11-2018 04:24 Дыши Скачать торрент  

Дыши / Breathe


  • Год выпуска: 2018
  • Страна: Индия
  • Жанр: Драма, Триллер
  • Продолжительность: ~ 00:40:00 (Серия)
  • Перевод: Профессиональный многоголосый [BaibaKo]
  • Режиссер: Маянк Шарма / Mayank Sharma
  • В ролях:
    Хришикеш Джоши, Нина Кулкарни, Мадхаван, Сапна Пабби, Амит Садх, Шрисвара, Атарва Вишвакарман, Баркха Сингх, Келли Прасад Мухержи и др.



  • Индийский драматический триллер «Дыши» рассказывает историю обычного человека, который оказывается в необычных обстоятельствах. Главный герой — талантливый и нестандартно мыслящий детектив полиции Кабир. Сопоставляя детали совершенно не связанных между собой на первый взгляд убийств, он выходит на человека, меньше всего похожего на подозреваемого, — приветливого отца семейства Дэнни. Несмотря на то, что догадки Кабира не подкрепляются уликами, он не прекращает расследование и надеется однажды свершить правосудие.
  • Рейтинг:

    rating
  • Качество: WEBRip
  • Формат: :AVI
  • Видео кодек: XviD
  • Аудио кодек: MP3
  • Видео: 1439 Кбит/сек, 720*400 (16:9), в 25,000 кадров/сек, MPEG-4 Visual (XviD)
  • Аудио №1: русский 192 Кбит/сек, 48,0 КГц, 2 канала, MPEG Audio (MP3) |[BaibaKo]|
  • Релиз от: GEKADOL

    Общее
    Полное имя : F:\Дыши (Breathe) S.1\Breathe.S01E08.WEBRip.XviD.Rus.BaibaKo.avi
    Формат : AVI
    Формат/Информация : Audio Video Interleave
    Размер файла : 421 Мбайт
    Продолжительность : 35 м. 52 с.
    Общий поток : 1641 Кбит/сек

    Видео
    Идентификатор : 0
    Формат : MPEG-4 Visual
    Профиль формата : Advanced Simple@L5
    Настройки формата : BVOP2
    Параметр BVOP формата : 2
    Параметр QPel формата : Нет
    Параметр GMC формата : Без точки перехода
    Параметр матрицы формата : Default (H.263)
    Идентификатор кодека : XVID
    Идентификатор кодека/Подсказка : XviD
    Продолжительность : 35 м. 52 с.
    Битрейт : 1439 Кбит/сек
    Ширина : 720 пикселей
    Высота : 400 пикселей
    Соотношение сторон : 16:9
    Частота кадров : 25,000 кадров/сек
    Цветовое пространство : YUV
    Субдискретизация насыщенности : 4:2:0
    Битовая глубина : 8 бит
    Тип развёртки : Прогрессивная
    Метод сжатия : С потерями
    Бит/(Пиксели*Кадры) : 0.200
    Размер потока : 369 Мбайт (88%)
    Библиотека кодирования : XviD 65

    Аудио
    Идентификатор : 1
    Формат : MPEG Audio
    Версия формата : Version 1
    Профиль формата : Layer 3
    Настройки формата : Joint stereo / MS Stereo
    Идентификатор кодека : 55
    Идентификатор кодека/Подсказка : MP3
    Продолжительность : 35 м. 52 с.
    Вид битрейта : Постоянный
    Битрейт : 192 Кбит/сек
    Каналы : 2 канала
    Частота : 48,0 КГц
    Метод сжатия : С потерями
    Задержка видео : 16 мс.
    Размер потока : 49,3 Мбайт (12%)
    Выравнивание : Разделение по промежуткам
    Продолжительность промежутка : 40 мс. (1,00 видеокадр)
    Время предзагрузки промежутка : 500 мс.



    Скриншоты:
    скриншот  скриншот   скриншот   скриншот   скриншот   скриншот   скриншот  
    скриншот  


    pb.wtf



  • Скачать Дыши через торрент http://pic1.kartinco.top/images/11/lq5yr.jpg Скачать фильм Дыши через торрент бесплантно в хорошем качестве qw.png Индийский драматический триллер «Дыши» рассказывает историю обычного человека, который оказывается в необычных обстоятельствах. ... 10 10 1
    Info! Золотая раздача, скачанное не засчитывается.
    Торрент: Зарегистрирован [2018-11-17 04:24] · скачан: 9 раз
    Статус: √ проверено
    Размер: 3.44 GB
    Как cкачать? Как скачать Дыши через торрент | qTorrent

    28-11-2019 20:33  

    Отключить всю рекламу на сайте

      Дорогой пользователь! Огромная просьба, поблагодарите релизера, оцените раздачу и оставьте свои комментарий, если Вы скачали Дыши через торрент бесплатно! Внесите свою лепту в развитие PiratBit!
      Комментировать посты могут только пользователи прошедшие не сложную регистрацию
      Показать сообщения:    

      Дыши через торрент
      Скачать бесплатно Дыши
      Дыши скачать торрент
      Дыши смотреть онлайн
      Cкачать фильм Дыши бесплатно
      Дыши скачать торрент в хорошем качестве
      Дыши смотреть онлайн бесплатно в хорошем качестве


      Вы не можете начинать темы
      Вы не можете отвечать на сообщения
      Вы не можете редактировать свои сообщения
      Вы не можете удалять свои сообщения
      Вы не можете голосовать в опросах
      Вы не можете прикреплять файлы к сообщениям
      Вы можете скачивать файлы