Ссылка на приватное зеркало всего за 1$. Внимание количество ограничено!!!

OK

1+1

iTunes

мы

OK

1

WEB-DLRip

Джокер

Пифагор

Ведьмак / The Witcher сериал

iTunes

ПШазам

ОК

Оно 2

iTunes

30
pack

Вам бонус

ВАЖНО

!!Акция!!

Alien_RageХит недели

RePack

Resident Evil 21

ИГРА 18+

pack

RePack

jed

RePack

fifa19

RePack

Assassins Creed: Odyssey

RePack

NEED FOR SPEED™ PAYBACK

4 сезон

9 сезон

Бесстыжие 9 сезон

Все сериалы

все сериалы на PB.wtf

RePack

FAR CRY 5
  

Инопланетные повелители / Alien Overlords (Ричард Лоури) [2018 г., Боевик, WEB-DL 720p, Любительский (многоголосый) (Синема УС)] pb.wtf

Инопланетные повелители через торрент pb.wtf

Размер: 2.64 GB | Добавлен: 1 год 2 мес. назад | Торрент скачан:188 раз
Скачать  

17-11-2018 05:03 Инопланетные повелители Скачать торрент  

Инопланетные повелители / Alien Overlords
Год выпуска: 2018
Страна: США
Жанр: Боевик
Продолжительность: 01:14:40
Перевод: Любительский (многоголосый) (Синема УС)
Субтитры: Отсутствуют

Режиссер: Ричард Лоури

rating

В ролях: Виктор Данте, Пол Лауден, Нина Саллинен, Бетт Смит ...

Описание: Сюжет разворачивается вокруг мужчины по имени Том Китинг, который всегда считал, что всякие там НЛО, пришельцы и прочая ересь - это всего лишь выдумка, больная фантазия больных на голову людей, которые просто хотят привлечь к себе побольше внимания. Но у судьбы для Тома есть сюрприз. Однажды он встретил Спенсера - бывшего сотрудника Людей в черном, который занимался ликвидацией неугодных государству людей. Находясь в предсмертном состоянии Спенсер открывает Тому страшную тайну о существовании тайной могущественной организации, в планах которой - поработить всю человеческую расу.

Доп. информация: Присутствуют вставки текстовой рекламы

Качество: WEB-DL 720p
Формат: MKV
Видео кодек: H.264
Аудио кодек: AC3
Видео: AVC/H.264, 1280x720, ~4583 Kbps
Аудио#1: AC-3, 2 ch, 384 Kbps
скриншот   скриншот   скриншот   скриншот  

Общее
Полное имя : E:\NNM\Инопланетные повелители\Alien Overlords 2018 WEB-DLRip 720p-LQ.mkv
Формат : Matroska
Версия формата : Version 2
Размер файла : 2,64 Гбайт
Продолжительность : 1 ч. 14 м.
Режим общего битрейта : Переменный
Общий поток : 5068 Кбит/сек
Программа кодирования : libmatroska 1.4.1

Видео
Идентификатор : 1
Формат : AVC
Формат/Информация : Advanced Video Codec
Профиль формата : High@L4.1
Настройки формата : CABAC / 4 Ref Frames
Параметр CABAC формата : Да
Параметр RefFrames формата : 4 кадра
Идентификатор кодека : V_MPEG4/ISO/AVC
Продолжительность : 1 ч. 14 м.
Вид битрейта : Переменный
Битрейт : 4583 Кбит/сек
Максимальный битрейт : 5500 Кбит/сек
Ширина : 1280 пикселей
Высота : 720 пикселей
Соотношение сторон : 16:9
Режим частоты кадров : Постоянный
Частота кадров : 23,976 (24000/1001) кадра/сек
Стандарт вещания : Component
Цветовое пространство : YUV
Субдискретизация насыщенности : 4:2:0
Битовая глубина : 8 бит
Тип развёртки : Прогрессивная
Бит/(Пиксели*Кадры) : 0.207
Размер потока : 2,39 Гбайт (90%)
Default : Нет
Forced : Нет
Цветовой диапазон : Limited
Основные цвета : BT.709
Характеристики трансфера : BT.709
Коэффициенты матрицы : BT.709

Аудио
Идентификатор : 2
Формат : AC-3
Формат/Информация : Audio Coding 3
Идентификатор кодека : A_AC3
Продолжительность : 1 ч. 14 м.
Вид битрейта : Постоянный
Битрейт : 384 Кбит/сек
Каналы : 2 канала
Расположение каналов : Front: L R
Частота : 48,0 КГц
Частота кадров : 31,250 кадров/сек (1536 SPF)
Битовая глубина : 16 бит
Метод сжатия : С потерями
Размер потока : 205 Мбайт (8%)
ServiceKind/String : Complete Main
Default : Нет
Forced : Нет

pb.wtf



Скачать Инопланетные повелители через торрент http://pic1.kartinco.top/images/11/bx1y8.jpg Скачать фильм Инопланетные повелители через торрент бесплантно в хорошем качестве Описание: Сюжет разворачивается вокруг мужчины по имени Том Китинг, который всегда считал, что всякие там НЛО, пришельцы и прочая ересь - ... 10 10 3
Торрент: Зарегистрирован [2018-11-17 05:03] · скачан: 188 раз
Статус: T временная
Размер: 2.64 GB
Как cкачать? Как скачать Инопланетные повелители через торрент | qTorrent

28-11-2019 20:33  

Отключить всю рекламу на сайте

17-11-2018 05:19 Инопланетные повелители Скачать торрент  

трейлер


pb.wtf



17-11-2018 05:36 Инопланетные повелители Скачать торрент  

рен тв?pb.wtf



17-11-2018 07:51 Инопланетные повелители Скачать торрент  

Познаватльный трейлер...pb.wtf



17-11-2018 14:46 Инопланетные повелители Скачать торрент  

хихиpb.wtf



18-11-2018 18:37 Инопланетные повелители Скачать торрент  

tamburetko писал(а):

трейлер






pb.wtf



    Дорогой пользователь! Огромная просьба, поблагодарите релизера, оцените раздачу и оставьте свои комментарий, если Вы скачали Инопланетные повелители через торрент бесплатно! Внесите свою лепту в развитие PiratBit!
    Комментировать посты могут только пользователи прошедшие не сложную регистрацию
    Показать сообщения:    

    Инопланетные повелители через торрент
    Скачать бесплатно Инопланетные повелители
    Инопланетные повелители скачать торрент
    Инопланетные повелители смотреть онлайн
    Cкачать фильм Инопланетные повелители бесплатно
    Инопланетные повелители скачать торрент в хорошем качестве
    Инопланетные повелители смотреть онлайн бесплатно в хорошем качестве


    Вы не можете начинать темы
    Вы не можете отвечать на сообщения
    Вы не можете редактировать свои сообщения
    Вы не можете удалять свои сообщения
    Вы не можете голосовать в опросах
    Вы не можете прикреплять файлы к сообщениям
    Вы можете скачивать файлы