Ссылка на приватное зеркало всего за 1$. Внимание количество ограничено!!!

iTunes

iTunes

iTunes

1

iTunes

iTunes

iTunes

WEBRip

iTunes

30
pack

$ от Little Big

ВАЖНО

!!Акция!!

Alien_RageХит недели

RePack

Resident Evil 21

ИГРА 18+

pack

RePack

jed

!!Акция!!

Alien_Rage

RePack

fifa19

RePack

Assassins Creed: Odyssey

RePack

NEED FOR SPEED™ PAYBACK

4 сезон

9 сезон

Бесстыжие 9 сезон

Все сериалы

все сериалы на PB.wtf

RePack

FAR CRY 5
  

Озеро страха 3 / Lake Fear 3 (Майкл Крам) [2018, ужасы, комедия, WEB-DL 720p] MVO ["Синема УС"] pb.wtf

Озеро страха 3 через торрент pb.wtf

Размер: 2.78 GB | Добавлен: 1 год 8 мес. назад | Торрент скачан:34 раза
Скачать  

17-11-2018 19:18 Озеро страха 3 Скачать торрент  

Озеро страха 3 / Lake Fear 3Год выпуска: 2018
Страна: США
Жанр: ужасы, комедия
Продолжительность: 01:22:39
Перевод: Любительский (многоголосый) | "Синема УС"
Субтитры: отсутствуют

Режиссер: Майкл Крам

rating

В ролях:

Кателин Е Ньюбери, Шэнон Снедден, Джошуа Винч, Деви Хаджишвили, Джеймс Д. Пруитт, Джон Зетти, Ричард С. Блейк, Джейк Николодеон, Ванди Кларк, Кевин А. Грин

Описание:

Реммингтон сбежал из дьявольского домика у озера, но зло продолжает преследовать его, принося хаос, куда бы он ни пошел. В это время Хлоя помогает своей подруге Рэвел искать сестру, которая пропала, когда поехала в тот же домик у озера. Они встречают Винсента, телеведущего-неудачника, и надеются, что он, как медиум, поможет им с поисками. Внезапно ночную тишину пронзают выстрелы. и тут наша троица встречает Реммингтона. Теперь им всем придется сражаться со злом, что преследует Реммингтона, чтобы навсегда запечатать мерзких тварей в аду.

Качество: WEB-DL 720p
Формат: MKV

Видео: h.264, 4 423 kb/s, 1280x720
Аудио#1: Русский, (AC3, 2 ch, 384 Кбит/с)
скриншот  скриншот  скриншот  

Общее
Уникальный идентификатор : 238928628508573432039769256707134555321 (0xB3BFFAE2B22090098FECB6AF2D1384B9)
Полное имя : D:\Lake.FeaR.3.2018.P.WEB-DL.72Op_KOSHARA.mkv
Формат : Matroska
Версия формата : Version 2
Размер файла : 2,78 Гбайт
Продолжительность : 1 ч. 22 м.
Режим общего битрейта : Переменный
Общий поток : 4809 Кбит/сек
Дата кодирования : UTC 2018-11-16 17:47:37
Программа кодирования : mkvmerge v8.3.0 ('Over the Horizon') 64bit
Библиотека кодирования : libebml v1.3.1 + libmatroska v1.4.2

Видео
Идентификатор : 1
Формат : AVC
Формат/Информация : Advanced Video Codec
Профиль формата : High@L4.1
Параметр CABAC формата : Да
Параметр RefFrames формата : 4 кадра
Идентификатор кодека : V_MPEG4/ISO/AVC
Продолжительность : 1 ч. 22 м.
Вид битрейта : Переменный
Битрейт : 4423 Кбит/сек
Максимальный битрейт : 5000 Кбит/сек
Ширина : 1280 пикселей
Высота : 720 пикселей
Соотношение сторон : 16:9
Режим частоты кадров : Постоянный
Частота кадров : 23,976 (24000/1001) кадра/сек
Стандарт вещания : Component
Цветовое пространство : YUV
Субдискретизация насыщенности : 4:2:0
Битовая глубина : 8 бит
Тип развёртки : Прогрессивная
Бит/(Пиксели*Кадры) : 0.196
Размер потока : 2,50 Гбайт (90%)
Default : Да
Forced : Нет
Цветовой диапазон : Limited
Основные цвета : BT.709
Характеристики трансфера : BT.709
Коэффициенты матрицы : BT.709

Аудио
Идентификатор : 2
Формат : AC-3
Формат/Информация : Audio Coding 3
Расширение режима : CM (complete main)
Параметр Endianness формата : Big
Идентификатор кодека : A_AC3
Продолжительность : 1 ч. 22 м.
Вид битрейта : Постоянный
Битрейт : 384 Кбит/сек
Каналы : 2 канала
Расположение каналов : Front: L R
Частота : 48,0 КГц
Частота кадров : 31,250 кадров/сек (1536 spf)
Метод сжатия : С потерями
Размер потока : 227 Мбайт (8%)
Default : Да
Forced : Нет

pb.wtf



Скачать Озеро страха 3 через торрент https://c.radikal.ru/c38/1811/e3/6e6bd16f35b7.jpg Скачать фильм Озеро страха 3 через торрент бесплантно в хорошем качестве Описание: Реммингтон сбежал из дьявольского домика у озера, но зло продолжает преследовать его, принося хаос, куда бы он ни пошел. В это ... 7 10 3
Торрент: Зарегистрирован [2018-11-17 19:18] · скачан: 34 раз
Статус: T временная
Размер: 2.78 GB
Как cкачать? Как скачать Озеро страха 3 через торрент | qTorrent

% Раздел Тема Автор DL S | L
T Фильмы (мультфильмы) cо спонсором показа (Новинки AVI/MKV) [ 1.36 GB ] Озеро страха 3 / Lake Fear 3 [2018 WEB-DLRip] MVO ["Синема УС"] bober100 Скачать
1 | 0

28-11-2019 20:33  

Отключить всю рекламу на сайте

18-11-2018 06:31 Озеро страха 3 Скачать торрент  

Подтверждает старый,фильм ужасен,не в плане сюжета,саспенса и атмосферы,а как...дн0,буквально в прямом и переносном смыслах..кек P.S. ДНО 3,так на месте режиссёра обозвал я "фильм"... Меня пугали вставки рекламы от "казлино",чем сам фильм...pb.wtf



    Дорогой пользователь! Огромная просьба, поблагодарите релизера, оцените раздачу и оставьте свои комментарий, если Вы скачали Озеро страха 3 через торрент бесплатно! Внесите свою лепту в развитие PiratBit!
    Комментировать посты могут только пользователи прошедшие не сложную регистрацию
    Показать сообщения:    

    Озеро страха 3 через торрент
    Скачать бесплатно Озеро страха 3
    Озеро страха 3 скачать торрент
    Озеро страха 3 смотреть онлайн
    Cкачать фильм Озеро страха 3 бесплатно
    Озеро страха 3 скачать торрент в хорошем качестве
    Озеро страха 3 смотреть онлайн бесплатно в хорошем качестве


    Вы не можете начинать темы
    Вы не можете отвечать на сообщения
    Вы не можете редактировать свои сообщения
    Вы не можете удалять свои сообщения
    Вы не можете голосовать в опросах
    Вы не можете прикреплять файлы к сообщениям
    Вы можете скачивать файлы